Ninja Kamui S01E11 MULTi 720p WEB x264 E-AC-3 -Tsundere-Raws (MAX).mkv


File Size215.6 MB (226,029,376 bytes)
DownloadClickNUpload | DailyUploads | GoFile | KrakenFiles | MdiaLoad | MultiUp
  • BdUpload
  • DownAce
  • Fichier
  • FileCloud
  • Filerio
  • FilesCdn
  • IndiShare
  • Kbagi
  • Turbobit
  • UpToBox
  • Uppit
HashesCRC32: 8A861508, MD5: 4ADE6EE76C0FBB10A3C50D4ADBFC460B, SHA1: F60FA227399B9BFC5C2C022C939E4D5CA305A508, SHA256: B729C9336FE1E5B279E8599C7CE8F9FA296C643E85D6D2921BDCA122C442C8A4, ED2K: C6E4C937A93408F17D726E1A5032E8E0
Screenshots
screenshotscreenshotscreenshotscreenshotscreenshot
SubtitlesAll Attachments | Forced [spa, SRT], bul [SRT], cze [SRT], dan [SRT], United States [eng, SRT], spa [SRT], fin [SRT], fre [SRT], hrv [SRT], hun [SRT], mac [SRT], nob [SRT], dut [SRT], pol [SRT], por [SRT], rum [SRT], slv [SRT], Latin [srp, SRT], swe [SRT]
Additional Info
General
Unique ID                                : 64248367459633132811647701136558170828 (0x3055C91502C75869D8E52B336A76A2CC)
Complete name                            : Ninja Kamui S01E11 MULTi 720p WEB x264 E-AC-3 -Tsundere-Raws (MAX).mkv
Format                                   : Matroska
Format version                           : Version 4
File size                                : 216 MiB
Duration                                 : 22 min 19 s
Overall bit rate mode                    : Variable
Overall bit rate                         : 1 350 kb/s
Frame rate                               : 25.000 FPS
Movie name                               : Ninja Kamui S01E11
Writing application                      : mkvmerge v84.0 ('Sleeper') 64-bit
Writing library                          : libebml v1.4.5 + libmatroska v1.7.1

Video
ID                                       : 1
Format                                   : AVC
Format/Info                              : Advanced Video Codec
Format profile                           : High@L3.1
Format settings                          : CABAC / 4 Ref Frames
Format settings, CABAC                   : Yes
Format settings, Reference frames        : 4 frames
Codec ID                                 : V_MPEG4/ISO/AVC
Duration                                 : 22 min 19 s
Bit rate mode                            : Variable
Bit rate                                 : 962 kb/s
Maximum bit rate                         : 4 000 kb/s
Width                                    : 1 280 pixels
Height                                   : 720 pixels
Display aspect ratio                     : 16:9
Frame rate mode                          : Constant
Frame rate                               : 25.000 FPS
Color space                              : YUV
Chroma subsampling                       : 4:2:0
Bit depth                                : 8 bits
Scan type                                : Progressive
Bits/(Pixel*Frame)                       : 0.042
Stream size                              : 154 MiB (71%)
Writing library                          : x264 core 164
Encoding settings                        : cabac=1 / ref=4 / deblock=1:0:0 / analyse=0x3:0x133 / me=umh / subme=10 / psy=1 / psy_rd=1.00:0.00 / mixed_ref=1 / me_range=24 / chroma_me=1 / trellis=2 / 8x8dct=1 / cqm=0 / deadzone=21,11 / fast_pskip=1 / chroma_qp_offset=-2 / threads=22 / lookahead_threads=1 / sliced_threads=0 / nr=0 / decimate=1 / interlaced=0 / bluray_compat=0 / stitchable=1 / constrained_intra=0 / bframes=3 / b_pyramid=2 / b_adapt=2 / b_bias=0 / direct=3 / weightb=1 / open_gop=0 / weightp=2 / keyint=100 / keyint_min=51 / scenecut=0 / intra_refresh=0 / rc_lookahead=100 / rc=crf / mbtree=1 / crf=21.0 / qcomp=0.60 / qpmin=0 / qpmax=69 / qpstep=4 / vbv_maxrate=4000 / vbv_bufsize=16000 / crf_max=0.0 / nal_hrd=vbr / filler=0 / ip_ratio=1.40 / aq=1:1.00
Language                                 : Japanese
Default                                  : Yes
Forced                                   : No
Color range                              : Limited
Color primaries                          : BT.709
Transfer characteristics                 : BT.709
Matrix coefficients                      : BT.709

Audio #1
ID                                       : 2
Format                                   : E-AC-3
Format/Info                              : Enhanced AC-3
Commercial name                          : Dolby Digital Plus
Codec ID                                 : A_EAC3
Duration                                 : 22 min 18 s
Bit rate mode                            : Constant
Bit rate                                 : 128 kb/s
Channel(s)                               : 2 channels
Channel layout                           : L R
Sampling rate                            : 48.0 kHz
Frame rate                               : 31.250 FPS (1536 SPF)
Compression mode                         : Lossy
Stream size                              : 20.4 MiB (9%)
Title                                    : United States
Language                                 : English (US)
Service kind                             : Complete Main
Default                                  : Yes
Forced                                   : No

Audio #2
ID                                       : 3
Format                                   : E-AC-3
Format/Info                              : Enhanced AC-3
Commercial name                          : Dolby Digital Plus
Codec ID                                 : A_EAC3
Duration                                 : 22 min 18 s
Bit rate mode                            : Constant
Bit rate                                 : 128 kb/s
Channel(s)                               : 2 channels
Channel layout                           : L R
Sampling rate                            : 48.0 kHz
Frame rate                               : 31.250 FPS (1536 SPF)
Compression mode                         : Lossy
Stream size                              : 20.4 MiB (9%)
Language                                 : Spanish (ES)
Service kind                             : Complete Main
Default                                  : No
Forced                                   : No

Audio #3
ID                                       : 4
Format                                   : E-AC-3
Format/Info                              : Enhanced AC-3
Commercial name                          : Dolby Digital Plus
Codec ID                                 : A_EAC3
Duration                                 : 22 min 18 s
Bit rate mode                            : Constant
Bit rate                                 : 128 kb/s
Channel(s)                               : 2 channels
Channel layout                           : L R
Sampling rate                            : 48.0 kHz
Frame rate                               : 31.250 FPS (1536 SPF)
Compression mode                         : Lossy
Stream size                              : 20.4 MiB (9%)
Language                                 : Japanese
Service kind                             : Complete Main
Default                                  : No
Forced                                   : No

Text #1
ID                                       : 5
Format                                   : UTF-8
Codec ID                                 : S_TEXT/UTF8
Codec ID/Info                            : UTF-8 Plain Text
Duration                                 : 1 min 29 s
Bit rate                                 : 6 b/s
Frame rate                               : 0.022 FPS
Count of elements                        : 2
Stream size                              : 68.0 Bytes (0%)
Title                                    : Forced
Language                                 : Spanish (ES)
Default                                  : No
Forced                                   : Yes

Text #2
ID                                       : 6
Format                                   : UTF-8
Codec ID                                 : S_TEXT/UTF8
Codec ID/Info                            : UTF-8 Plain Text
Duration                                 : 22 min 10 s
Bit rate                                 : 69 b/s
Frame rate                               : 0.136 FPS
Count of elements                        : 181
Stream size                              : 11.3 KiB (0%)
Language                                 : Bulgarian
Default                                  : No
Forced                                   : No

Text #3
ID                                       : 7
Format                                   : UTF-8
Codec ID                                 : S_TEXT/UTF8
Codec ID/Info                            : UTF-8 Plain Text
Duration                                 : 21 min 59 s
Bit rate                                 : 42 b/s
Frame rate                               : 0.157 FPS
Count of elements                        : 207
Stream size                              : 6.91 KiB (0%)
Language                                 : Czech
Default                                  : No
Forced                                   : No

Text #4
ID                                       : 8
Format                                   : UTF-8
Codec ID                                 : S_TEXT/UTF8
Codec ID/Info                            : UTF-8 Plain Text
Duration                                 : 22 min 6 s
Bit rate                                 : 46 b/s
Frame rate                               : 0.142 FPS
Count of elements                        : 189
Stream size                              : 7.58 KiB (0%)
Language                                 : Danish
Default                                  : No
Forced                                   : No

Text #5
ID                                       : 9
Format                                   : UTF-8
Codec ID                                 : S_TEXT/UTF8
Codec ID/Info                            : UTF-8 Plain Text
Duration                                 : 22 min 8 s
Bit rate                                 : 51 b/s
Frame rate                               : 0.157 FPS
Count of elements                        : 209
Stream size                              : 8.40 KiB (0%)
Title                                    : United States
Language                                 : English (US)
Default                                  : No
Forced                                   : No

Text #6
ID                                       : 10
Format                                   : UTF-8
Codec ID                                 : S_TEXT/UTF8
Codec ID/Info                            : UTF-8 Plain Text
Duration                                 : 21 min 15 s
Bit rate                                 : 53 b/s
Frame rate                               : 0.180 FPS
Count of elements                        : 229
Stream size                              : 8.27 KiB (0%)
Language                                 : Spanish (ES)
Default                                  : No
Forced                                   : No

Text #7
ID                                       : 11
Format                                   : UTF-8
Codec ID                                 : S_TEXT/UTF8
Codec ID/Info                            : UTF-8 Plain Text
Duration                                 : 22 min 6 s
Bit rate                                 : 46 b/s
Frame rate                               : 0.147 FPS
Count of elements                        : 195
Stream size                              : 7.50 KiB (0%)
Language                                 : Finnish
Default                                  : No
Forced                                   : No

Text #8
ID                                       : 12
Format                                   : UTF-8
Codec ID                                 : S_TEXT/UTF8
Codec ID/Info                            : UTF-8 Plain Text
Duration                                 : 22 min 4 s
Bit rate                                 : 47 b/s
Frame rate                               : 0.176 FPS
Count of elements                        : 233
Stream size                              : 7.74 KiB (0%)
Language                                 : French (FR)
Default                                  : No
Forced                                   : No

Text #9
ID                                       : 13
Format                                   : UTF-8
Codec ID                                 : S_TEXT/UTF8
Codec ID/Info                            : UTF-8 Plain Text
Duration                                 : 22 min 5 s
Bit rate                                 : 43 b/s
Frame rate                               : 0.158 FPS
Count of elements                        : 210
Stream size                              : 7.03 KiB (0%)
Language                                 : Croatian
Default                                  : No
Forced                                   : No

Text #10
ID                                       : 14
Format                                   : UTF-8
Codec ID                                 : S_TEXT/UTF8
Codec ID/Info                            : UTF-8 Plain Text
Duration                                 : 22 min 8 s
Bit rate                                 : 46 b/s
Frame rate                               : 0.152 FPS
Count of elements                        : 202
Stream size                              : 7.56 KiB (0%)
Language                                 : Hungarian
Default                                  : No
Forced                                   : No

Text #11
ID                                       : 15
Format                                   : UTF-8
Codec ID                                 : S_TEXT/UTF8
Codec ID/Info                            : UTF-8 Plain Text
Duration                                 : 22 min 5 s
Bit rate                                 : 77 b/s
Frame rate                               : 0.158 FPS
Count of elements                        : 210
Stream size                              : 12.6 KiB (0%)
Language                                 : Macedonian
Default                                  : No
Forced                                   : No

Text #12
ID                                       : 16
Format                                   : UTF-8
Codec ID                                 : S_TEXT/UTF8
Codec ID/Info                            : UTF-8 Plain Text
Duration                                 : 22 min 1 s
Bit rate                                 : 43 b/s
Frame rate                               : 0.129 FPS
Count of elements                        : 170
Stream size                              : 6.97 KiB (0%)
Language                                 : Norwegian Bokmal
Default                                  : No
Forced                                   : No

Text #13
ID                                       : 17
Format                                   : UTF-8
Codec ID                                 : S_TEXT/UTF8
Codec ID/Info                            : UTF-8 Plain Text
Duration                                 : 22 min 6 s
Bit rate                                 : 44 b/s
Frame rate                               : 0.145 FPS
Count of elements                        : 193
Stream size                              : 7.25 KiB (0%)
Language                                 : Dutch
Default                                  : No
Forced                                   : No

Text #14
ID                                       : 18
Format                                   : UTF-8
Codec ID                                 : S_TEXT/UTF8
Codec ID/Info                            : UTF-8 Plain Text
Duration                                 : 22 min 10 s
Bit rate                                 : 39 b/s
Frame rate                               : 0.126 FPS
Count of elements                        : 168
Stream size                              : 6.44 KiB (0%)
Language                                 : Polish
Default                                  : No
Forced                                   : No

Text #15
ID                                       : 19
Format                                   : UTF-8
Codec ID                                 : S_TEXT/UTF8
Codec ID/Info                            : UTF-8 Plain Text
Duration                                 : 22 min 6 s
Bit rate                                 : 48 b/s
Frame rate                               : 0.153 FPS
Count of elements                        : 203
Stream size                              : 7.89 KiB (0%)
Language                                 : Portuguese (PT)
Default                                  : No
Forced                                   : No

Text #16
ID                                       : 20
Format                                   : UTF-8
Codec ID                                 : S_TEXT/UTF8
Codec ID/Info                            : UTF-8 Plain Text
Duration                                 : 21 min 24 s
Bit rate                                 : 48 b/s
Frame rate                               : 0.150 FPS
Count of elements                        : 193
Stream size                              : 7.54 KiB (0%)
Language                                 : Romanian
Default                                  : No
Forced                                   : No

Text #17
ID                                       : 21
Format                                   : UTF-8
Codec ID                                 : S_TEXT/UTF8
Codec ID/Info                            : UTF-8 Plain Text
Duration                                 : 22 min 5 s
Bit rate                                 : 41 b/s
Frame rate                               : 0.158 FPS
Count of elements                        : 210
Stream size                              : 6.68 KiB (0%)
Language                                 : Slovenian
Default                                  : No
Forced                                   : No

Text #18
ID                                       : 22
Format                                   : UTF-8
Codec ID                                 : S_TEXT/UTF8
Codec ID/Info                            : UTF-8 Plain Text
Duration                                 : 22 min 5 s
Bit rate                                 : 40 b/s
Frame rate                               : 0.158 FPS
Count of elements                        : 210
Stream size                              : 6.62 KiB (0%)
Title                                    : Latin
Language                                 : Serbian (Latn)
Default                                  : No
Forced                                   : No

Text #19
ID                                       : 23
Format                                   : UTF-8
Codec ID                                 : S_TEXT/UTF8
Codec ID/Info                            : UTF-8 Plain Text
Duration                                 : 22 min 6 s
Bit rate                                 : 47 b/s
Frame rate                               : 0.148 FPS
Count of elements                        : 196
Stream size                              : 7.75 KiB (0%)
Language                                 : Swedish
Default                                  : No
Forced                                   : No

Other Files in this Torrent
Ninja Kamui S01E11 MULTi 720p WEB x264 E-AC-3 -Tsundere-Raws (MAX).mkv
beta
Anime DDL+NZB mirror
Current Time: 19/07/2024 08:10



About/FAQs

Discord