Ninja Kamui S01E06 MULTi 720p WEB x264 E-AC-3 -Tsundere-Raws (MAX).mkv


File Size238.3 MB (249,882,334 bytes)
DownloadClickNUpload | DailyUploads | GoFile | KrakenFiles | MdiaLoad | MultiUp
  • BdUpload
  • DownAce
  • Fichier
  • FileCloud
  • Filerio
  • FilesCdn
  • IndiShare
  • Kbagi
  • Turbobit
  • UpToBox
  • Uppit
HashesCRC32: 6CDADEC1, MD5: 6E9279274335DE69DF183AAFB03DAD11, SHA1: 634A20DB2BAE6E740AC5B51A2185A95D0967AD68, SHA256: 5BE03BF804213AF7DE00DC85583E7B4A9294C37F463935B13102D97C136D4578, ED2K: F6D4CEB9EB1D20EB5B09A13B468206CB
Screenshots
screenshotscreenshotscreenshotscreenshotscreenshot
SubtitlesAll Attachments | Forced [spa, SRT], bul [SRT], cze [SRT], dan [SRT], United States [eng, SRT], spa [SRT], fin [SRT], fre [SRT], hrv [SRT], hun [SRT], mac [SRT], nob [SRT], dut [SRT], pol [SRT], por [SRT], rum [SRT], slv [SRT], Latin [srp, SRT], swe [SRT]
Additional Info
General
Unique ID                                : 39257172811902596538175405536851820983 (0x1D88A80E17D1A7584B9578B55E5881B7)
Complete name                            : Ninja Kamui S01E06 MULTi 720p WEB x264 E-AC-3 -Tsundere-Raws (MAX).mkv
Format                                   : Matroska
Format version                           : Version 4
File size                                : 238 MiB
Duration                                 : 22 min 19 s
Overall bit rate mode                    : Variable
Overall bit rate                         : 1 493 kb/s
Frame rate                               : 25.000 FPS
Movie name                               : Ninja Kamui S01E06
Writing application                      : mkvmerge v84.0 ('Sleeper') 64-bit
Writing library                          : libebml v1.4.5 + libmatroska v1.7.1

Video
ID                                       : 1
Format                                   : AVC
Format/Info                              : Advanced Video Codec
Format profile                           : High@L3.1
Format settings                          : CABAC / 4 Ref Frames
Format settings, CABAC                   : Yes
Format settings, Reference frames        : 4 frames
Codec ID                                 : V_MPEG4/ISO/AVC
Duration                                 : 22 min 19 s
Bit rate mode                            : Variable
Bit rate                                 : 1 105 kb/s
Maximum bit rate                         : 4 000 kb/s
Width                                    : 1 280 pixels
Height                                   : 720 pixels
Display aspect ratio                     : 16:9
Frame rate mode                          : Constant
Frame rate                               : 25.000 FPS
Color space                              : YUV
Chroma subsampling                       : 4:2:0
Bit depth                                : 8 bits
Scan type                                : Progressive
Bits/(Pixel*Frame)                       : 0.048
Stream size                              : 176 MiB (74%)
Writing library                          : x264 core 164
Encoding settings                        : cabac=1 / ref=4 / deblock=1:0:0 / analyse=0x3:0x133 / me=umh / subme=10 / psy=1 / psy_rd=1.00:0.00 / mixed_ref=1 / me_range=24 / chroma_me=1 / trellis=2 / 8x8dct=1 / cqm=0 / deadzone=21,11 / fast_pskip=1 / chroma_qp_offset=-2 / threads=22 / lookahead_threads=1 / sliced_threads=0 / nr=0 / decimate=1 / interlaced=0 / bluray_compat=0 / stitchable=1 / constrained_intra=0 / bframes=3 / b_pyramid=2 / b_adapt=2 / b_bias=0 / direct=3 / weightb=1 / open_gop=0 / weightp=2 / keyint=100 / keyint_min=51 / scenecut=0 / intra_refresh=0 / rc_lookahead=100 / rc=crf / mbtree=1 / crf=21.0 / qcomp=0.60 / qpmin=0 / qpmax=69 / qpstep=4 / vbv_maxrate=4000 / vbv_bufsize=16000 / crf_max=0.0 / nal_hrd=vbr / filler=0 / ip_ratio=1.40 / aq=1:1.00
Language                                 : Japanese
Default                                  : Yes
Forced                                   : No
Color range                              : Limited
Color primaries                          : BT.709
Transfer characteristics                 : BT.709
Matrix coefficients                      : BT.709

Audio #1
ID                                       : 2
Format                                   : E-AC-3
Format/Info                              : Enhanced AC-3
Commercial name                          : Dolby Digital Plus
Codec ID                                 : A_EAC3
Duration                                 : 22 min 18 s
Bit rate mode                            : Constant
Bit rate                                 : 128 kb/s
Channel(s)                               : 2 channels
Channel layout                           : L R
Sampling rate                            : 48.0 kHz
Frame rate                               : 31.250 FPS (1536 SPF)
Compression mode                         : Lossy
Stream size                              : 20.4 MiB (9%)
Title                                    : United States
Language                                 : English (US)
Service kind                             : Complete Main
Default                                  : Yes
Forced                                   : No

Audio #2
ID                                       : 3
Format                                   : E-AC-3
Format/Info                              : Enhanced AC-3
Commercial name                          : Dolby Digital Plus
Codec ID                                 : A_EAC3
Duration                                 : 22 min 18 s
Bit rate mode                            : Constant
Bit rate                                 : 128 kb/s
Channel(s)                               : 2 channels
Channel layout                           : L R
Sampling rate                            : 48.0 kHz
Frame rate                               : 31.250 FPS (1536 SPF)
Compression mode                         : Lossy
Stream size                              : 20.4 MiB (9%)
Language                                 : Spanish (ES)
Service kind                             : Complete Main
Default                                  : No
Forced                                   : No

Audio #3
ID                                       : 4
Format                                   : E-AC-3
Format/Info                              : Enhanced AC-3
Commercial name                          : Dolby Digital Plus
Codec ID                                 : A_EAC3
Duration                                 : 22 min 18 s
Bit rate mode                            : Constant
Bit rate                                 : 128 kb/s
Channel(s)                               : 2 channels
Channel layout                           : L R
Sampling rate                            : 48.0 kHz
Frame rate                               : 31.250 FPS (1536 SPF)
Compression mode                         : Lossy
Stream size                              : 20.4 MiB (9%)
Language                                 : Japanese
Service kind                             : Complete Main
Default                                  : No
Forced                                   : No

Text #1
ID                                       : 5
Format                                   : UTF-8
Codec ID                                 : S_TEXT/UTF8
Codec ID/Info                            : UTF-8 Plain Text
Duration                                 : 800 ms
Bit rate                                 : 100 b/s
Frame rate                               : 1.250 FPS
Count of elements                        : 1
Stream size                              : 10.0 Bytes (0%)
Title                                    : Forced
Language                                 : Spanish (ES)
Default                                  : No
Forced                                   : Yes

Text #2
ID                                       : 6
Format                                   : UTF-8
Codec ID                                 : S_TEXT/UTF8
Codec ID/Info                            : UTF-8 Plain Text
Duration                                 : 20 min 38 s
Bit rate                                 : 87 b/s
Frame rate                               : 0.168 FPS
Count of elements                        : 208
Stream size                              : 13.2 KiB (0%)
Language                                 : Bulgarian
Default                                  : No
Forced                                   : No

Text #3
ID                                       : 7
Format                                   : UTF-8
Codec ID                                 : S_TEXT/UTF8
Codec ID/Info                            : UTF-8 Plain Text
Duration                                 : 20 min 34 s
Bit rate                                 : 49 b/s
Frame rate                               : 0.182 FPS
Count of elements                        : 225
Stream size                              : 7.51 KiB (0%)
Language                                 : Czech
Default                                  : No
Forced                                   : No

Text #4
ID                                       : 8
Format                                   : UTF-8
Codec ID                                 : S_TEXT/UTF8
Codec ID/Info                            : UTF-8 Plain Text
Duration                                 : 20 min 27 s
Bit rate                                 : 59 b/s
Frame rate                               : 0.165 FPS
Count of elements                        : 203
Stream size                              : 8.85 KiB (0%)
Language                                 : Danish
Default                                  : No
Forced                                   : No

Text #5
ID                                       : 9
Format                                   : UTF-8
Codec ID                                 : S_TEXT/UTF8
Codec ID/Info                            : UTF-8 Plain Text
Duration                                 : 20 min 28 s
Bit rate                                 : 61 b/s
Frame rate                               : 0.185 FPS
Count of elements                        : 227
Stream size                              : 9.28 KiB (0%)
Title                                    : United States
Language                                 : English (US)
Default                                  : No
Forced                                   : No

Text #6
ID                                       : 10
Format                                   : UTF-8
Codec ID                                 : S_TEXT/UTF8
Codec ID/Info                            : UTF-8 Plain Text
Duration                                 : 20 min 17 s
Bit rate                                 : 63 b/s
Frame rate                               : 0.212 FPS
Count of elements                        : 258
Stream size                              : 9.47 KiB (0%)
Language                                 : Spanish (ES)
Default                                  : No
Forced                                   : No

Text #7
ID                                       : 11
Format                                   : UTF-8
Codec ID                                 : S_TEXT/UTF8
Codec ID/Info                            : UTF-8 Plain Text
Duration                                 : 20 min 27 s
Bit rate                                 : 56 b/s
Frame rate                               : 0.165 FPS
Count of elements                        : 202
Stream size                              : 8.53 KiB (0%)
Language                                 : Finnish
Default                                  : No
Forced                                   : No

Text #8
ID                                       : 12
Format                                   : UTF-8
Codec ID                                 : S_TEXT/UTF8
Codec ID/Info                            : UTF-8 Plain Text
Duration                                 : 20 min 35 s
Bit rate                                 : 55 b/s
Frame rate                               : 0.196 FPS
Count of elements                        : 242
Stream size                              : 8.42 KiB (0%)
Language                                 : French (FR)
Default                                  : No
Forced                                   : No

Text #9
ID                                       : 13
Format                                   : UTF-8
Codec ID                                 : S_TEXT/UTF8
Codec ID/Info                            : UTF-8 Plain Text
Duration                                 : 20 min 28 s
Bit rate                                 : 51 b/s
Frame rate                               : 0.186 FPS
Count of elements                        : 228
Stream size                              : 7.74 KiB (0%)
Language                                 : Croatian
Default                                  : No
Forced                                   : No

Text #10
ID                                       : 14
Format                                   : UTF-8
Codec ID                                 : S_TEXT/UTF8
Codec ID/Info                            : UTF-8 Plain Text
Duration                                 : 20 min 27 s
Bit rate                                 : 56 b/s
Frame rate                               : 0.180 FPS
Count of elements                        : 221
Stream size                              : 8.44 KiB (0%)
Language                                 : Hungarian
Default                                  : No
Forced                                   : No

Text #11
ID                                       : 15
Format                                   : UTF-8
Codec ID                                 : S_TEXT/UTF8
Codec ID/Info                            : UTF-8 Plain Text
Duration                                 : 20 min 28 s
Bit rate                                 : 91 b/s
Frame rate                               : 0.186 FPS
Count of elements                        : 228
Stream size                              : 13.7 KiB (0%)
Language                                 : Macedonian
Default                                  : No
Forced                                   : No

Text #12
ID                                       : 16
Format                                   : UTF-8
Codec ID                                 : S_TEXT/UTF8
Codec ID/Info                            : UTF-8 Plain Text
Duration                                 : 20 min 27 s
Bit rate                                 : 53 b/s
Frame rate                               : 0.152 FPS
Count of elements                        : 186
Stream size                              : 8.04 KiB (0%)
Language                                 : Norwegian Bokmal
Default                                  : No
Forced                                   : No

Text #13
ID                                       : 17
Format                                   : UTF-8
Codec ID                                 : S_TEXT/UTF8
Codec ID/Info                            : UTF-8 Plain Text
Duration                                 : 20 min 27 s
Bit rate                                 : 55 b/s
Frame rate                               : 0.162 FPS
Count of elements                        : 199
Stream size                              : 8.35 KiB (0%)
Language                                 : Dutch
Default                                  : No
Forced                                   : No

Text #14
ID                                       : 18
Format                                   : UTF-8
Codec ID                                 : S_TEXT/UTF8
Codec ID/Info                            : UTF-8 Plain Text
Duration                                 : 20 min 54 s
Bit rate                                 : 47 b/s
Frame rate                               : 0.158 FPS
Count of elements                        : 198
Stream size                              : 7.33 KiB (0%)
Language                                 : Polish
Default                                  : No
Forced                                   : No

Text #15
ID                                       : 19
Format                                   : UTF-8
Codec ID                                 : S_TEXT/UTF8
Codec ID/Info                            : UTF-8 Plain Text
Duration                                 : 20 min 27 s
Bit rate                                 : 60 b/s
Frame rate                               : 0.175 FPS
Count of elements                        : 215
Stream size                              : 9.06 KiB (0%)
Language                                 : Portuguese (PT)
Default                                  : No
Forced                                   : No

Text #16
ID                                       : 20
Format                                   : UTF-8
Codec ID                                 : S_TEXT/UTF8
Codec ID/Info                            : UTF-8 Plain Text
Duration                                 : 20 min 27 s
Bit rate                                 : 54 b/s
Frame rate                               : 0.169 FPS
Count of elements                        : 208
Stream size                              : 8.24 KiB (0%)
Language                                 : Romanian
Default                                  : No
Forced                                   : No

Text #17
ID                                       : 21
Format                                   : UTF-8
Codec ID                                 : S_TEXT/UTF8
Codec ID/Info                            : UTF-8 Plain Text
Duration                                 : 20 min 28 s
Bit rate                                 : 51 b/s
Frame rate                               : 0.186 FPS
Count of elements                        : 228
Stream size                              : 7.77 KiB (0%)
Language                                 : Slovenian
Default                                  : No
Forced                                   : No

Text #18
ID                                       : 22
Format                                   : UTF-8
Codec ID                                 : S_TEXT/UTF8
Codec ID/Info                            : UTF-8 Plain Text
Duration                                 : 20 min 28 s
Bit rate                                 : 50 b/s
Frame rate                               : 0.186 FPS
Count of elements                        : 228
Stream size                              : 7.60 KiB (0%)
Title                                    : Latin
Language                                 : Serbian (Latn)
Default                                  : No
Forced                                   : No

Text #19
ID                                       : 23
Format                                   : UTF-8
Codec ID                                 : S_TEXT/UTF8
Codec ID/Info                            : UTF-8 Plain Text
Duration                                 : 20 min 27 s
Bit rate                                 : 58 b/s
Frame rate                               : 0.164 FPS
Count of elements                        : 201
Stream size                              : 8.80 KiB (0%)
Language                                 : Swedish
Default                                  : No
Forced                                   : No

Other Files in this Torrent
Ninja Kamui S01E06 MULTi 720p WEB x264 E-AC-3 -Tsundere-Raws (MAX).mkv
beta
Anime DDL+NZB mirror
Current Time: 19/07/2024 09:42



About/FAQs

Discord