Ninja Kamui S01E05 MULTi 720p WEB x264 E-AC-3 -Tsundere-Raws (MAX).mkv


File Size220.5 MB (231,160,478 bytes)
DownloadClickNUpload | DailyUploads | GoFile | KrakenFiles | MdiaLoad | MultiUp
  • BdUpload
  • DownAce
  • Fichier
  • FileCloud
  • Filerio
  • FilesCdn
  • IndiShare
  • Kbagi
  • Turbobit
  • UpToBox
  • Uppit
HashesCRC32: 97862743, MD5: 8D786E43DA4B4681F4AFB0C06C287BD8, SHA1: B7A751BAF831E56A278541A1BA5C05A36F36D2AF, SHA256: BAC1A5B1E32FA72655D23325B88E32B9460F87908CA07B6AA8989307C3F05E8E, ED2K: 79B13B883A495751B4A17CA615766E15
Screenshots
screenshotscreenshotscreenshotscreenshotscreenshot
SubtitlesAll Attachments | Forced [spa, SRT], bul [SRT], cze [SRT], dan [SRT], United States [eng, SRT], spa [SRT], fin [SRT], fre [SRT], hrv [SRT], hun [SRT], mac [SRT], nob [SRT], dut [SRT], pol [SRT], por [SRT], rum [SRT], slv [SRT], Latin [srp, SRT], swe [SRT]
Additional Info
General
Unique ID                                : 3663347359421144735589291140765082234 (0x2C188F839B87FBA916ADB1449B2627A)
Complete name                            : Ninja Kamui S01E05 MULTi 720p WEB x264 E-AC-3 -Tsundere-Raws (MAX).mkv
Format                                   : Matroska
Format version                           : Version 4
File size                                : 220 MiB
Duration                                 : 22 min 23 s
Overall bit rate mode                    : Variable
Overall bit rate                         : 1 377 kb/s
Frame rate                               : 25.000 FPS
Movie name                               : Ninja Kamui S01E05
Writing application                      : mkvmerge v84.0 ('Sleeper') 64-bit
Writing library                          : libebml v1.4.5 + libmatroska v1.7.1

Video
ID                                       : 1
Format                                   : AVC
Format/Info                              : Advanced Video Codec
Format profile                           : High@L3.1
Format settings                          : CABAC / 4 Ref Frames
Format settings, CABAC                   : Yes
Format settings, Reference frames        : 4 frames
Codec ID                                 : V_MPEG4/ISO/AVC
Duration                                 : 22 min 23 s
Bit rate mode                            : Variable
Bit rate                                 : 989 kb/s
Maximum bit rate                         : 4 000 kb/s
Width                                    : 1 280 pixels
Height                                   : 720 pixels
Display aspect ratio                     : 16:9
Frame rate mode                          : Constant
Frame rate                               : 25.000 FPS
Color space                              : YUV
Chroma subsampling                       : 4:2:0
Bit depth                                : 8 bits
Scan type                                : Progressive
Bits/(Pixel*Frame)                       : 0.043
Stream size                              : 158 MiB (72%)
Writing library                          : x264 core 164
Encoding settings                        : cabac=1 / ref=4 / deblock=1:0:0 / analyse=0x3:0x133 / me=umh / subme=10 / psy=1 / psy_rd=1.00:0.00 / mixed_ref=1 / me_range=24 / chroma_me=1 / trellis=2 / 8x8dct=1 / cqm=0 / deadzone=21,11 / fast_pskip=1 / chroma_qp_offset=-2 / threads=22 / lookahead_threads=1 / sliced_threads=0 / nr=0 / decimate=1 / interlaced=0 / bluray_compat=0 / stitchable=1 / constrained_intra=0 / bframes=3 / b_pyramid=2 / b_adapt=2 / b_bias=0 / direct=3 / weightb=1 / open_gop=0 / weightp=2 / keyint=100 / keyint_min=51 / scenecut=0 / intra_refresh=0 / rc_lookahead=100 / rc=crf / mbtree=1 / crf=21.0 / qcomp=0.60 / qpmin=0 / qpmax=69 / qpstep=4 / vbv_maxrate=4000 / vbv_bufsize=16000 / crf_max=0.0 / nal_hrd=vbr / filler=0 / ip_ratio=1.40 / aq=1:1.00
Language                                 : Japanese
Default                                  : Yes
Forced                                   : No
Color range                              : Limited
Color primaries                          : BT.709
Transfer characteristics                 : BT.709
Matrix coefficients                      : BT.709

Audio #1
ID                                       : 2
Format                                   : E-AC-3
Format/Info                              : Enhanced AC-3
Commercial name                          : Dolby Digital Plus
Codec ID                                 : A_EAC3
Duration                                 : 22 min 22 s
Bit rate mode                            : Constant
Bit rate                                 : 128 kb/s
Channel(s)                               : 2 channels
Channel layout                           : L R
Sampling rate                            : 48.0 kHz
Frame rate                               : 31.250 FPS (1536 SPF)
Compression mode                         : Lossy
Stream size                              : 20.5 MiB (9%)
Title                                    : United States
Language                                 : English (US)
Service kind                             : Complete Main
Default                                  : Yes
Forced                                   : No

Audio #2
ID                                       : 3
Format                                   : E-AC-3
Format/Info                              : Enhanced AC-3
Commercial name                          : Dolby Digital Plus
Codec ID                                 : A_EAC3
Duration                                 : 22 min 22 s
Bit rate mode                            : Constant
Bit rate                                 : 128 kb/s
Channel(s)                               : 2 channels
Channel layout                           : L R
Sampling rate                            : 48.0 kHz
Frame rate                               : 31.250 FPS (1536 SPF)
Compression mode                         : Lossy
Stream size                              : 20.5 MiB (9%)
Language                                 : Spanish (ES)
Service kind                             : Complete Main
Default                                  : No
Forced                                   : No

Audio #3
ID                                       : 4
Format                                   : E-AC-3
Format/Info                              : Enhanced AC-3
Commercial name                          : Dolby Digital Plus
Codec ID                                 : A_EAC3
Duration                                 : 22 min 22 s
Bit rate mode                            : Constant
Bit rate                                 : 128 kb/s
Channel(s)                               : 2 channels
Channel layout                           : L R
Sampling rate                            : 48.0 kHz
Frame rate                               : 31.250 FPS (1536 SPF)
Compression mode                         : Lossy
Stream size                              : 20.5 MiB (9%)
Language                                 : Japanese
Service kind                             : Complete Main
Default                                  : No
Forced                                   : No

Text #1
ID                                       : 5
Format                                   : UTF-8
Codec ID                                 : S_TEXT/UTF8
Codec ID/Info                            : UTF-8 Plain Text
Duration                                 : 1 min 2 s
Bit rate                                 : 3 b/s
Frame rate                               : 0.032 FPS
Count of elements                        : 2
Stream size                              : 30.0 Bytes (0%)
Title                                    : Forced
Language                                 : Spanish (ES)
Default                                  : No
Forced                                   : Yes

Text #2
ID                                       : 6
Format                                   : UTF-8
Codec ID                                 : S_TEXT/UTF8
Codec ID/Info                            : UTF-8 Plain Text
Duration                                 : 20 min 40 s
Bit rate                                 : 57 b/s
Frame rate                               : 0.124 FPS
Count of elements                        : 154
Stream size                              : 8.77 KiB (0%)
Language                                 : Bulgarian
Default                                  : No
Forced                                   : No

Text #3
ID                                       : 7
Format                                   : UTF-8
Codec ID                                 : S_TEXT/UTF8
Codec ID/Info                            : UTF-8 Plain Text
Duration                                 : 20 min 36 s
Bit rate                                 : 36 b/s
Frame rate                               : 0.148 FPS
Count of elements                        : 183
Stream size                              : 5.52 KiB (0%)
Language                                 : Czech
Default                                  : No
Forced                                   : No

Text #4
ID                                       : 8
Format                                   : UTF-8
Codec ID                                 : S_TEXT/UTF8
Codec ID/Info                            : UTF-8 Plain Text
Duration                                 : 20 min 34 s
Bit rate                                 : 38 b/s
Frame rate                               : 0.126 FPS
Count of elements                        : 155
Stream size                              : 5.74 KiB (0%)
Language                                 : Danish
Default                                  : No
Forced                                   : No

Text #5
ID                                       : 9
Format                                   : UTF-8
Codec ID                                 : S_TEXT/UTF8
Codec ID/Info                            : UTF-8 Plain Text
Duration                                 : 20 min 38 s
Bit rate                                 : 43 b/s
Frame rate                               : 0.142 FPS
Count of elements                        : 176
Stream size                              : 6.56 KiB (0%)
Title                                    : United States
Language                                 : English (US)
Default                                  : No
Forced                                   : No

Text #6
ID                                       : 10
Format                                   : UTF-8
Codec ID                                 : S_TEXT/UTF8
Codec ID/Info                            : UTF-8 Plain Text
Duration                                 : 18 min 55 s
Bit rate                                 : 48 b/s
Frame rate                               : 0.176 FPS
Count of elements                        : 200
Stream size                              : 6.74 KiB (0%)
Language                                 : Spanish (ES)
Default                                  : No
Forced                                   : No

Text #7
ID                                       : 11
Format                                   : UTF-8
Codec ID                                 : S_TEXT/UTF8
Codec ID/Info                            : UTF-8 Plain Text
Duration                                 : 20 min 34 s
Bit rate                                 : 37 b/s
Frame rate                               : 0.128 FPS
Count of elements                        : 158
Stream size                              : 5.64 KiB (0%)
Language                                 : Finnish
Default                                  : No
Forced                                   : No

Text #8
ID                                       : 12
Format                                   : UTF-8
Codec ID                                 : S_TEXT/UTF8
Codec ID/Info                            : UTF-8 Plain Text
Duration                                 : 20 min 36 s
Bit rate                                 : 39 b/s
Frame rate                               : 0.152 FPS
Count of elements                        : 188
Stream size                              : 5.95 KiB (0%)
Language                                 : French (FR)
Default                                  : No
Forced                                   : No

Text #9
ID                                       : 13
Format                                   : UTF-8
Codec ID                                 : S_TEXT/UTF8
Codec ID/Info                            : UTF-8 Plain Text
Duration                                 : 20 min 38 s
Bit rate                                 : 34 b/s
Frame rate                               : 0.145 FPS
Count of elements                        : 179
Stream size                              : 5.27 KiB (0%)
Language                                 : Croatian
Default                                  : No
Forced                                   : No

Text #10
ID                                       : 14
Format                                   : UTF-8
Codec ID                                 : S_TEXT/UTF8
Codec ID/Info                            : UTF-8 Plain Text
Duration                                 : 20 min 38 s
Bit rate                                 : 39 b/s
Frame rate                               : 0.142 FPS
Count of elements                        : 176
Stream size                              : 5.92 KiB (0%)
Language                                 : Hungarian
Default                                  : No
Forced                                   : No

Text #11
ID                                       : 15
Format                                   : UTF-8
Codec ID                                 : S_TEXT/UTF8
Codec ID/Info                            : UTF-8 Plain Text
Duration                                 : 20 min 38 s
Bit rate                                 : 62 b/s
Frame rate                               : 0.145 FPS
Count of elements                        : 179
Stream size                              : 9.42 KiB (0%)
Language                                 : Macedonian
Default                                  : No
Forced                                   : No

Text #12
ID                                       : 16
Format                                   : UTF-8
Codec ID                                 : S_TEXT/UTF8
Codec ID/Info                            : UTF-8 Plain Text
Duration                                 : 20 min 33 s
Bit rate                                 : 34 b/s
Frame rate                               : 0.109 FPS
Count of elements                        : 135
Stream size                              : 5.18 KiB (0%)
Language                                 : Norwegian Bokmal
Default                                  : No
Forced                                   : No

Text #13
ID                                       : 17
Format                                   : UTF-8
Codec ID                                 : S_TEXT/UTF8
Codec ID/Info                            : UTF-8 Plain Text
Duration                                 : 20 min 34 s
Bit rate                                 : 36 b/s
Frame rate                               : 0.126 FPS
Count of elements                        : 155
Stream size                              : 5.57 KiB (0%)
Language                                 : Dutch
Default                                  : No
Forced                                   : No

Text #14
ID                                       : 18
Format                                   : UTF-8
Codec ID                                 : S_TEXT/UTF8
Codec ID/Info                            : UTF-8 Plain Text
Duration                                 : 20 min 51 s
Bit rate                                 : 31 b/s
Frame rate                               : 0.119 FPS
Count of elements                        : 149
Stream size                              : 4.86 KiB (0%)
Language                                 : Polish
Default                                  : No
Forced                                   : No

Text #15
ID                                       : 19
Format                                   : UTF-8
Codec ID                                 : S_TEXT/UTF8
Codec ID/Info                            : UTF-8 Plain Text
Duration                                 : 20 min 34 s
Bit rate                                 : 39 b/s
Frame rate                               : 0.132 FPS
Count of elements                        : 163
Stream size                              : 5.94 KiB (0%)
Language                                 : Portuguese (PT)
Default                                  : No
Forced                                   : No

Text #16
ID                                       : 20
Format                                   : UTF-8
Codec ID                                 : S_TEXT/UTF8
Codec ID/Info                            : UTF-8 Plain Text
Duration                                 : 20 min 37 s
Bit rate                                 : 38 b/s
Frame rate                               : 0.142 FPS
Count of elements                        : 176
Stream size                              : 5.79 KiB (0%)
Language                                 : Romanian
Default                                  : No
Forced                                   : No

Text #17
ID                                       : 21
Format                                   : UTF-8
Codec ID                                 : S_TEXT/UTF8
Codec ID/Info                            : UTF-8 Plain Text
Duration                                 : 20 min 38 s
Bit rate                                 : 33 b/s
Frame rate                               : 0.145 FPS
Count of elements                        : 179
Stream size                              : 5.06 KiB (0%)
Language                                 : Slovenian
Default                                  : No
Forced                                   : No

Text #18
ID                                       : 22
Format                                   : UTF-8
Codec ID                                 : S_TEXT/UTF8
Codec ID/Info                            : UTF-8 Plain Text
Duration                                 : 20 min 38 s
Bit rate                                 : 35 b/s
Frame rate                               : 0.145 FPS
Count of elements                        : 179
Stream size                              : 5.31 KiB (0%)
Title                                    : Latin
Language                                 : Serbian (Latn)
Default                                  : No
Forced                                   : No

Text #19
ID                                       : 23
Format                                   : UTF-8
Codec ID                                 : S_TEXT/UTF8
Codec ID/Info                            : UTF-8 Plain Text
Duration                                 : 20 min 34 s
Bit rate                                 : 37 b/s
Frame rate                               : 0.124 FPS
Count of elements                        : 153
Stream size                              : 5.72 KiB (0%)
Language                                 : Swedish
Default                                  : No
Forced                                   : No

Other Files in this Torrent
Ninja Kamui S01E05 MULTi 720p WEB x264 E-AC-3 -Tsundere-Raws (MAX).mkv
beta
Anime DDL+NZB mirror
Current Time: 19/07/2024 07:57



About/FAQs

Discord