[JacobSwaggedUp] One Punch Man - 09 (BD 1280x720).mp4


File Size228.5 MB (239,630,190 bytes)
DownloadClickNUpload | DropAPK | Jheberg
  • 1Fichier
  • 2Giga
  • BDupload
  • ClicknUpload
  • Filerio
  • FilesCDN
  • FilesUpload
  • Free
  • MegaUp
  • Nitroflare
  • Openload
  • ShareOnline
  • Turbobit
  • Tusfiles
  • Uppit
  • Uptobox
  • ddlTo
| MultiUp
  • BdUpload
  • DownAce
  • Fichier
  • FileCloud
  • Filerio
  • FilesCdn
  • IndiShare
  • Kbagi
  • Turbobit
  • UpToBox
  • Uppit
| Sendspace | SolidFiles | ZippyShare
HashesCRC32: 5EA471EE, MD5: 3DB150471F855E8919749AF43F3545C9, SHA1: E7C066B97094983E4F250BE94D722741D113C392, SHA256: 49D10A70D0BAD3D02AF9E64041ECDE6F339441D68E4615A6EFAE547A25204BB0, ED2K: 93241170C0EA3B9A1290E3C0B80F0BA4
Screenshots
screenshotscreenshotscreenshotscreenshotscreenshot
Additional Info
General
Complete name                            : [JacobSwaggedUp] One Punch Man - 09 (BD 1280x720).mp4
Format                                   : MPEG-4
Format profile                           : Base Media
Codec ID                                 : isom (isom/avc1)
File size                                : 229 MiB
Duration                                 : 24 min 21 s
Overall bit rate mode                    : Variable
Overall bit rate                         : 1 312 kb/s
Encoded date                             : UTC 2020-03-02 21:45:18
Tagged date                              : UTC 2020-03-02 21:45:18

Video
ID                                       : 1
Format                                   : AVC
Format/Info                              : Advanced Video Codec
Format profile                           : High@L4.1
Format settings                          : CABAC / 4 Ref Frames
Format settings, CABAC                   : Yes
Format settings, ReFrames                : 4 frames
Codec ID                                 : avc1
Codec ID/Info                            : Advanced Video Coding
Duration                                 : 24 min 21 s
Bit rate                                 : 1 019 kb/s
Maximum bit rate                         : 8 064 kb/s
Width                                    : 1 280 pixels
Height                                   : 720 pixels
Display aspect ratio                     : 16:9
Frame rate mode                          : Constant
Frame rate                               : 23.976 (24000/1001) FPS
Color space                              : YUV
Chroma subsampling                       : 4:2:0
Bit depth                                : 8 bits
Scan type                                : Progressive
Bits/(Pixel*Frame)                       : 0.046
Stream size                              : 178 MiB (78%)
Writing library                          : x264 core 157 r2969 d4099dd
Encoding settings                        : cabac=1 / ref=4 / deblock=1:1:1 / analyse=0x3:0x113 / me=hex / subme=6 / psy=1 / psy_rd=0.40:0.00 / mixed_ref=1 / me_range=16 / chroma_me=1 / trellis=1 / 8x8dct=1 / cqm=0 / deadzone=21,11 / fast_pskip=1 / chroma_qp_offset=-2 / threads=12 / lookahead_threads=2 / sliced_threads=0 / nr=0 / decimate=1 / interlaced=0 / bluray_compat=0 / constrained_intra=0 / bframes=5 / b_pyramid=2 / b_adapt=1 / b_bias=0 / direct=1 / weightb=1 / open_gop=0 / weightp=1 / keyint=240 / keyint_min=23 / scenecut=40 / intra_refresh=0 / rc_lookahead=30 / rc=crf / mbtree=1 / crf=24.0 / qcomp=0.60 / qpmin=0 / qpmax=69 / qpstep=4 / vbv_maxrate=31250 / vbv_bufsize=31250 / crf_max=0.0 / nal_hrd=none / filler=0 / ip_ratio=1.40 / aq=1:0.60
Encoded date                             : UTC 2020-03-02 21:45:18
Tagged date                              : UTC 2020-03-02 21:45:31
Codec configuration box                  : avcC

Audio
ID                                       : 2
Format                                   : AAC LC
Format/Info                              : Advanced Audio Codec Low Complexity
Codec ID                                 : mp4a-40-2
Duration                                 : 24 min 21 s
Bit rate mode                            : Variable
Bit rate                                 : 288 kb/s
Maximum bit rate                         : 403 kb/s
Channel(s)                               : 2 channels
Channel layout                           : L R
Sampling rate                            : 48.0 kHz
Frame rate                               : 46.875 FPS (1024 SPF)
Compression mode                         : Lossy
Stream size                              : 50.3 MiB (22%)
Language                                 : man
Encoded date                             : UTC 2020-03-02 21:35:25
Tagged date                              : UTC 2020-03-02 21:45:31

Menu
00:00:00.000                             : Prologue
00:01:53.029                             : Opening
00:03:23.119                             : Part A
00:11:21.847                             : Break
00:11:32.358                             : Part B
00:22:01.111                             : Ending
00:23:31.284                             : Part C
00:24:00.313                             : Preview

Other Files in this Torrent
[JacobSwaggedUp] One Punch Man - 09 (BD 1280x720).mp4
beta
Anime DDL+NZB mirror
Current Time: 02/12/2021 23:36



About/FAQs

Discord