[JacobSwaggedUp] One Punch Man - OAD 2 (BD 1280x720).mp4


File Size63.63 MB (66,725,651 bytes)
DownloadClickNUpload | DropAPK | Jheberg
  • 1Fichier
  • 2Giga
  • BDupload
  • ClicknUpload
  • Filerio
  • FilesCDN
  • FilesUpload
  • Free
  • MegaUp
  • Nitroflare
  • Openload
  • ShareOnline
  • Turbobit
  • Tusfiles
  • Uppit
  • Uptobox
  • ddlTo
| MultiUp
  • BdUpload
  • DownAce
  • Fichier
  • FileCloud
  • Filerio
  • FilesCdn
  • IndiShare
  • Kbagi
  • Turbobit
  • UpToBox
  • Uppit
| Sendspace | SolidFiles | ZippyShare
HashesCRC32: DF8155EE, MD5: 154D5B4A6DDA7354946EDB0BB9AB75CF, SHA1: DD2D9E1CD3AB01BE3B9345691097D100D8197A55, SHA256: FCBCAC78920651539CB366BF50E0CC0F02BC66F4F035FF8BC1D694F2DF02E318, ED2K: 505A8C19CA4AF39924FE1BE06C60A0A4
Screenshots
screenshotscreenshotscreenshotscreenshotscreenshot
Additional Info
General
Complete name                            : [JacobSwaggedUp] One Punch Man - OAD 2 (BD 1280x720).mp4
Format                                   : MPEG-4
Format profile                           : Base Media
Codec ID                                 : isom (isom/avc1)
File size                                : 63.6 MiB
Duration                                 : 11 min 39 s
Overall bit rate mode                    : Variable
Overall bit rate                         : 763 kb/s
Encoded date                             : UTC 2020-03-02 22:22:17
Tagged date                              : UTC 2020-03-02 22:22:17

Video
ID                                       : 1
Format                                   : AVC
Format/Info                              : Advanced Video Codec
Format profile                           : High@L4.1
Format settings                          : CABAC / 4 Ref Frames
Format settings, CABAC                   : Yes
Format settings, ReFrames                : 4 frames
Codec ID                                 : avc1
Codec ID/Info                            : Advanced Video Coding
Duration                                 : 11 min 39 s
Bit rate                                 : 482 kb/s
Maximum bit rate                         : 6 502 kb/s
Width                                    : 1 280 pixels
Height                                   : 720 pixels
Display aspect ratio                     : 16:9
Frame rate mode                          : Constant
Frame rate                               : 23.976 (24000/1001) FPS
Color space                              : YUV
Chroma subsampling                       : 4:2:0
Bit depth                                : 8 bits
Scan type                                : Progressive
Bits/(Pixel*Frame)                       : 0.022
Stream size                              : 40.2 MiB (63%)
Writing library                          : x264 core 157 r2969 d4099dd
Encoding settings                        : cabac=1 / ref=4 / deblock=1:1:1 / analyse=0x3:0x113 / me=hex / subme=6 / psy=1 / psy_rd=0.40:0.00 / mixed_ref=1 / me_range=16 / chroma_me=1 / trellis=1 / 8x8dct=1 / cqm=0 / deadzone=21,11 / fast_pskip=1 / chroma_qp_offset=-2 / threads=12 / lookahead_threads=2 / sliced_threads=0 / nr=0 / decimate=1 / interlaced=0 / bluray_compat=0 / constrained_intra=0 / bframes=5 / b_pyramid=2 / b_adapt=1 / b_bias=0 / direct=1 / weightb=1 / open_gop=0 / weightp=1 / keyint=240 / keyint_min=23 / scenecut=40 / intra_refresh=0 / rc_lookahead=30 / rc=crf / mbtree=1 / crf=24.0 / qcomp=0.60 / qpmin=0 / qpmax=69 / qpstep=4 / vbv_maxrate=31250 / vbv_bufsize=31250 / crf_max=0.0 / nal_hrd=none / filler=0 / ip_ratio=1.40 / aq=1:0.60
Encoded date                             : UTC 2020-03-02 22:22:17
Tagged date                              : UTC 2020-03-02 22:22:22
Codec configuration box                  : avcC

Audio
ID                                       : 2
Format                                   : AAC LC
Format/Info                              : Advanced Audio Codec Low Complexity
Codec ID                                 : mp4a-40-2
Duration                                 : 11 min 39 s
Bit rate mode                            : Variable
Bit rate                                 : 277 kb/s
Maximum bit rate                         : 375 kb/s
Channel(s)                               : 2 channels
Channel layout                           : L R
Sampling rate                            : 48.0 kHz
Frame rate                               : 46.875 FPS (1024 SPF)
Compression mode                         : Lossy
Stream size                              : 23.1 MiB (36%)
Language                                 : man
Encoded date                             : UTC 2020-03-02 22:18:21
Tagged date                              : UTC 2020-03-02 22:22:22

Menu
00:00:00.000                             : Episode
00:10:05.021                             : Ending

Other Files in this Torrent
[JacobSwaggedUp] One Punch Man - OAD 2 (BD 1280x720).mp4
beta
Anime DDL+NZB mirror
Current Time: 02/12/2021 23:21



About/FAQs

Discord