[GJM] Manaria Friends - 06 [694E9129].mkv


File Size237.5 MB (249,041,099 bytes)
DownloadClickNUpload | Jheberg | MultiUp
  • BdUpload
  • DownAce
  • Fichier
  • FileCloud
  • Filerio
  • FilesCdn
  • IndiShare
  • Kbagi
  • Turbobit
  • UpToBox
  • Uppit
| SolidFiles | UploadFiles | ZippyShare
HashesCRC32: 694E9129, MD5: EE3722C188A4AA5C29CA845E1F59C7C1, SHA1: 09CC4EAAD85A418383CCBEAF918DA4AD3E238DEC, SHA256: B7BFC8065C6C02B625E78749480C2CBE489E3E9618A0BD9455593486BBC7BE2E, ED2K: 21908BD0100C8C35DCB0760A16FB221F
Screenshots
screenshotscreenshotscreenshotscreenshotscreenshot
SubtitlesAll Attachments | No Honorifics [eng, ASS]
Additional Info
General
Unique ID                                : 30293655625189988948516189775689802084 (0x16CA5889954320AAF2B6099ACD7DE164)
Complete name                            : [GJM] Manaria Friends - 06 [694E9129].mkv
Format                                   : Matroska
Format version                           : Version 4
File size                                : 238 MiB
Duration                                 : 14 min 34 s
Overall bit rate                         : 2 279 kb/s
Encoded date                             : UTC 2019-03-02 08:32:58
Writing application                      : mkvmerge v31.0.0 ('Dolores In A Shoestand') 32-bit
Writing library                          : libebml v1.3.6 + libmatroska v1.4.9
Attachments                              : GANDHISANS-BOLD.OTF / GANDHISANS-BOLDITALIC.OTF / ZCOOLXIAOWEI-REGULAR.TTF / ALEGREYA-REGULAR.OTF

Video
ID                                       : 1
Format                                   : AVC
Format/Info                              : Advanced Video Codec
Format profile                           : High 10@L5
Format settings                          : CABAC / 16 Ref Frames
Format settings, CABAC                   : Yes
Format settings, ReFrames                : 16 frames
Codec ID                                 : V_MPEG4/ISO/AVC
Duration                                 : 14 min 33 s
Bit rate                                 : 1 994 kb/s
Width                                    : 1 440 pixels
Height                                   : 810 pixels
Display aspect ratio                     : 16:9
Frame rate mode                          : Constant
Frame rate                               : 23.976 (24000/1001) FPS
Color space                              : YUV
Chroma subsampling                       : 4:2:0
Bit depth                                : 10 bits
Scan type                                : Progressive
Bits/(Pixel*Frame)                       : 0.071
Stream size                              : 208 MiB (87%)
Writing library                          : x264 core 157 r2935 545de2f
Encoding settings                        : cabac=1 / ref=16 / deblock=1:0:0 / analyse=0x3:0x133 / me=umh / subme=10 / psy=1 / psy_rd=0.72:0.00 / mixed_ref=1 / me_range=24 / chroma_me=1 / trellis=2 / 8x8dct=1 / cqm=0 / deadzone=21,11 / fast_pskip=0 / chroma_qp_offset=-2 / threads=25 / lookahead_threads=6 / sliced_threads=0 / nr=0 / decimate=0 / interlaced=0 / bluray_compat=0 / constrained_intra=0 / bframes=10 / b_pyramid=2 / b_adapt=2 / b_bias=0 / direct=3 / weightb=1 / open_gop=0 / weightp=2 / keyint=480 / keyint_min=24 / scenecut=40 / intra_refresh=0 / rc_lookahead=60 / rc=crf / mbtree=1 / crf=17.0 / qcomp=0.70 / qpmin=0 / qpmax=81 / qpstep=4 / ip_ratio=1.40 / aq=3:0.85
Language                                 : Japanese
Default                                  : Yes
Forced                                   : No

Audio
ID                                       : 2
Format                                   : E-AC-3
Format/Info                              : Enhanced AC-3
Commercial name                          : Dolby Digital Plus
Codec ID                                 : A_EAC3
Duration                                 : 14 min 34 s
Bit rate mode                            : Constant
Bit rate                                 : 224 kb/s
Channel(s)                               : 2 channels
Channel layout                           : L R
Sampling rate                            : 48.0 kHz
Frame rate                               : 31.250 FPS (1536 SPF)
Compression mode                         : Lossy
Stream size                              : 23.3 MiB (10%)
Title                                    : Japanese
Language                                 : Japanese
Service kind                             : Complete Main
Default                                  : No
Forced                                   : No

Text
ID                                       : 3
Format                                   : ASS
Codec ID                                 : S_TEXT/ASS
Codec ID/Info                            : Advanced Sub Station Alpha
Duration                                 : 14 min 22 s
Bit rate                                 : 76 b/s
Count of elements                        : 147
Compression mode                         : Lossless
Stream size                              : 8.09 KiB (0%)
Title                                    : No Honorifics
Language                                 : English
Default                                  : Yes
Forced                                   : No

Menu
00:00:00.000                             : en:Episode
00:10:49.983                             : en:ED
00:11:36.946                             : en:Bonus
00:14:23.905                             : en:Title Card
00:14:28.910                             : en:Illustration

Other Files in this Torrent
[GJM] Manaria Friends - 06 [694E9129].mkv
beta
Anime DDL+NZB mirror
Current Time: 29/11/2020 13:35



About/FAQs