[GJM] Manaria Friends - 02 [BB3F0D34].mkv


File Size225.1 MB (236,075,243 bytes)
DownloadClickNUpload | Jheberg | MultiUp
  • BdUpload
  • DownAce
  • Fichier
  • FileCloud
  • Filerio
  • FilesCdn
  • IndiShare
  • Kbagi
  • Turbobit
  • UpToBox
  • Uppit
| SolidFiles | UploadFiles | ZippyShare
HashesCRC32: BB3F0D34, MD5: 62B3B41196F85B88084E9FE9A3A4E5FD, SHA1: D52101A4BF0E20BBB8517A00A5A4E63C3717E3C8, SHA256: 87A6CD9BD65654EBB65591CAE04FE491EEF8ED922C80D209B44C7B54539D2647, ED2K: 6ECF26D9DDAF22804342DFF44F39601D
Screenshots
screenshotscreenshotscreenshotscreenshotscreenshot
SubtitlesAll Attachments | No Honorifics [eng, ASS]
Additional Info
General
Unique ID                                : 160719008375144410367244839370315119211 (0x78E95AE6EDBB23727644BBDA1B45BA6B)
Complete name                            : [GJM] Manaria Friends - 02 [BB3F0D34].mkv
Format                                   : Matroska
Format version                           : Version 4
File size                                : 225 MiB
Duration                                 : 14 min 15 s
Overall bit rate                         : 2 209 kb/s
Encoded date                             : UTC 2019-01-30 12:24:47
Writing application                      : mkvmerge v30.1.0 ('Forever And More') 32-bit
Writing library                          : libebml v1.3.6 + libmatroska v1.4.9
Attachments                              : GANDHISANS-BOLDITALIC.OTF / ZCOOLXIAOWEI-REGULAR.TTF / ALEGREYA-REGULAR.OTF / GANDHISANS-BOLD.OTF

Video
ID                                       : 1
Format                                   : AVC
Format/Info                              : Advanced Video Codec
Format profile                           : High 10@L5
Format settings                          : CABAC / 16 Ref Frames
Format settings, CABAC                   : Yes
Format settings, ReFrames                : 16 frames
Codec ID                                 : V_MPEG4/ISO/AVC
Duration                                 : 14 min 14 s
Bit rate                                 : 1 922 kb/s
Width                                    : 1 440 pixels
Height                                   : 810 pixels
Display aspect ratio                     : 16:9
Frame rate mode                          : Constant
Frame rate                               : 23.976 (24000/1001) FPS
Color space                              : YUV
Chroma subsampling                       : 4:2:0
Bit depth                                : 10 bits
Scan type                                : Progressive
Bits/(Pixel*Frame)                       : 0.069
Stream size                              : 196 MiB (87%)
Writing library                          : x264 core 157 r2935 545de2f
Encoding settings                        : cabac=1 / ref=16 / deblock=1:0:0 / analyse=0x3:0x133 / me=umh / subme=10 / psy=1 / psy_rd=0.72:0.00 / mixed_ref=1 / me_range=24 / chroma_me=1 / trellis=2 / 8x8dct=1 / cqm=0 / deadzone=21,11 / fast_pskip=0 / chroma_qp_offset=-2 / threads=25 / lookahead_threads=6 / sliced_threads=0 / nr=0 / decimate=0 / interlaced=0 / bluray_compat=0 / constrained_intra=0 / bframes=10 / b_pyramid=2 / b_adapt=2 / b_bias=0 / direct=3 / weightb=1 / open_gop=0 / weightp=2 / keyint=240 / keyint_min=1 / scenecut=40 / intra_refresh=0 / rc_lookahead=60 / rc=crf / mbtree=1 / crf=17.0 / qcomp=0.70 / qpmin=0 / qpmax=81 / qpstep=4 / ip_ratio=1.40 / aq=3:0.85
Language                                 : Japanese
Default                                  : Yes
Forced                                   : No

Audio
ID                                       : 2
Format                                   : E-AC-3
Format/Info                              : Enhanced AC-3
Commercial name                          : Dolby Digital Plus
Codec ID                                 : A_EAC3
Duration                                 : 14 min 15 s
Bit rate mode                            : Constant
Bit rate                                 : 224 kb/s
Channel(s)                               : 2 channels
Channel layout                           : L R
Sampling rate                            : 48.0 kHz
Frame rate                               : 31.250 FPS (1536 SPF)
Compression mode                         : Lossy
Stream size                              : 22.8 MiB (10%)
Language                                 : Japanese
Service kind                             : Complete Main
Default                                  : Yes
Forced                                   : No

Text
ID                                       : 3
Format                                   : ASS
Codec ID                                 : S_TEXT/ASS
Codec ID/Info                            : Advanced Sub Station Alpha
Duration                                 : 13 min 52 s
Bit rate                                 : 61 b/s
Count of elements                        : 126
Compression mode                         : Lossless
Stream size                              : 6.28 KiB (0%)
Title                                    : No Honorifics
Language                                 : English
Default                                  : Yes
Forced                                   : No

Menu
00:00:00.000                             : en:Episode
00:10:48.982                             : en:ED
00:11:35.945                             : en:Bonus
00:14:04.886                             : en:Title Card
00:14:09.891                             : en:Illustration

Other Files in this Torrent
[GJM] Manaria Friends - 02 [BB3F0D34].mkv
beta
Anime DDL+NZB mirror
Current Time: 29/11/2020 13:11



About/FAQs