[GJM] Manaria Friends - 07 [A9A49303].mkv


File Size150.0 MB (157,303,258 bytes)
DownloadClickNUpload | Jheberg | MultiUp
  • BdUpload
  • DownAce
  • Fichier
  • FileCloud
  • Filerio
  • FilesCdn
  • IndiShare
  • Kbagi
  • Turbobit
  • UpToBox
  • Uppit
| SolidFiles | UploadFiles | ZippyShare
HashesCRC32: A9A49303, MD5: 6A1244493CF4DDFC24779AD17320FAC1, SHA1: A93B293DBBE3B21C707328914AF31D5D0EACD5C6, SHA256: 5E500CB4D93CC12A6C21AB0A6D5C018BC4C792291002D341337FECAAEE3487C8, ED2K: 470BABC5A19947708CC3463EF0668DEA
Screenshots
screenshotscreenshotscreenshotscreenshotscreenshot
SubtitlesAll Attachments | No Honorifics [eng, ASS]
Additional Info
General
Unique ID                                : 89104289733981097507168549338026906242 (0x4308DCAA89B8F089F519D39136E49282)
Complete name                            : [GJM] Manaria Friends - 07 [A9A49303].mkv
Format                                   : Matroska
Format version                           : Version 4
File size                                : 150 MiB
Duration                                 : 13 min 48 s
Overall bit rate                         : 1 520 kb/s
Encoded date                             : UTC 2019-03-13 00:10:52
Writing application                      : mkvmerge v31.0.0 ('Dolores In A Shoestand') 32-bit
Writing library                          : libebml v1.3.6 + libmatroska v1.4.9
Attachments                              : ALEGREYA-REGULAR.OTF / GANDHISANS-BOLD.OTF / GANDHISANS-BOLDITALIC.OTF / ZCOOLXIAOWEI-REGULAR.TTF

Video
ID                                       : 1
Format                                   : AVC
Format/Info                              : Advanced Video Codec
Format profile                           : High 10@L5
Format settings                          : CABAC / 16 Ref Frames
Format settings, CABAC                   : Yes
Format settings, ReFrames                : 16 frames
Codec ID                                 : V_MPEG4/ISO/AVC
Duration                                 : 13 min 47 s
Bit rate                                 : 1 230 kb/s
Width                                    : 1 440 pixels
Height                                   : 810 pixels
Display aspect ratio                     : 16:9
Frame rate mode                          : Constant
Frame rate                               : 23.976 (24000/1001) FPS
Color space                              : YUV
Chroma subsampling                       : 4:2:0
Bit depth                                : 10 bits
Scan type                                : Progressive
Bits/(Pixel*Frame)                       : 0.044
Stream size                              : 121 MiB (81%)
Writing library                          : x264 core 157 r2935 545de2f
Encoding settings                        : cabac=1 / ref=16 / deblock=1:0:0 / analyse=0x3:0x133 / me=umh / subme=10 / psy=1 / psy_rd=0.72:0.00 / mixed_ref=1 / me_range=24 / chroma_me=1 / trellis=2 / 8x8dct=1 / cqm=0 / deadzone=21,11 / fast_pskip=0 / chroma_qp_offset=-2 / threads=8 / lookahead_threads=2 / sliced_threads=0 / nr=0 / decimate=0 / interlaced=0 / bluray_compat=0 / constrained_intra=0 / bframes=10 / b_pyramid=2 / b_adapt=2 / b_bias=0 / direct=3 / weightb=1 / open_gop=0 / weightp=2 / keyint=480 / keyint_min=24 / scenecut=40 / intra_refresh=0 / rc_lookahead=60 / rc=crf / mbtree=1 / crf=17.0 / qcomp=0.70 / qpmin=0 / qpmax=81 / qpstep=4 / ip_ratio=1.40 / aq=3:0.85
Language                                 : Japanese
Default                                  : Yes
Forced                                   : No

Audio
ID                                       : 2
Format                                   : E-AC-3
Format/Info                              : Enhanced AC-3
Commercial name                          : Dolby Digital Plus
Codec ID                                 : A_EAC3
Duration                                 : 13 min 48 s
Bit rate mode                            : Constant
Bit rate                                 : 224 kb/s
Channel(s)                               : 2 channels
Channel layout                           : L R
Sampling rate                            : 48.0 kHz
Frame rate                               : 31.250 FPS (1536 SPF)
Compression mode                         : Lossy
Stream size                              : 22.1 MiB (15%)
Language                                 : Japanese
Service kind                             : Complete Main
Default                                  : Yes
Forced                                   : No

Text
ID                                       : 3
Format                                   : ASS
Codec ID                                 : S_TEXT/ASS
Codec ID/Info                            : Advanced Sub Station Alpha
Duration                                 : 13 min 41 s
Bit rate                                 : 61 b/s
Count of elements                        : 131
Compression mode                         : Lossless
Stream size                              : 6.13 KiB (0%)
Title                                    : No Honorifics
Language                                 : English
Default                                  : Yes
Forced                                   : No

Menu
00:00:00.000                             : en:Episode
00:09:09.799                             : en:ED
00:09:50.423                             : en:Bonus
00:13:37.943                             : en:Title Card
00:13:42.948                             : en:Illustration

Other Files in this Torrent
[GJM] Manaria Friends - 07 [A9A49303].mkv
beta
Anime DDL+NZB mirror
Current Time: 29/11/2020 12:39



About/FAQs