[GJM] Manaria Friends - 09 [1835927C].mkv


File Size210.3 MB (220,474,304 bytes)
DownloadClickNUpload | Jheberg | MultiUp
  • BdUpload
  • DownAce
  • Fichier
  • FileCloud
  • Filerio
  • FilesCdn
  • IndiShare
  • Kbagi
  • Turbobit
  • UpToBox
  • Uppit
| SolidFiles | UploadFiles | ZippyShare
HashesCRC32: 1835927C, MD5: FA1379BAB04110048029B6B89ADEAC83, SHA1: 045CBEF6B1EE751D564794FD98B864C28999FFB2, SHA256: DC324AAC7F1A21C8879EC60C1353915A6E312354A7857610FD6D062A2B702F7F, ED2K: 55C7C97D88CD5C4E9DDF29052212AD2B
Screenshots
screenshotscreenshotscreenshotscreenshotscreenshot
SubtitlesAll Attachments | No Honorifics [eng, ASS]
Additional Info
General
Unique ID                                : 99475181045001232769335780293005521438 (0x4AD63915DBE372851C973860FC8FB21E)
Complete name                            : [GJM] Manaria Friends - 09 [1835927C].mkv
Format                                   : Matroska
Format version                           : Version 4
File size                                : 210 MiB
Duration                                 : 14 min 40 s
Overall bit rate                         : 2 004 kb/s
Encoded date                             : UTC 2019-03-23 07:34:24
Writing application                      : mkvmerge v32.0.0 ('Astral Progressions') 32-bit
Writing library                          : libebml v1.3.7 + libmatroska v1.5.0
Attachments                              : GANDHISANS-BOLD.OTF / GANDHISANS-BOLDITALIC.OTF / ZCOOLXIAOWEI-REGULAR.TTF / ALEGREYA-REGULAR.OTF

Video
ID                                       : 1
Format                                   : AVC
Format/Info                              : Advanced Video Codec
Format profile                           : High 10@L5
Format settings                          : CABAC / 16 Ref Frames
Format settings, CABAC                   : Yes
Format settings, ReFrames                : 16 frames
Codec ID                                 : V_MPEG4/ISO/AVC
Duration                                 : 14 min 39 s
Bit rate                                 : 1 719 kb/s
Width                                    : 1 440 pixels
Height                                   : 810 pixels
Display aspect ratio                     : 16:9
Frame rate mode                          : Constant
Frame rate                               : 23.976 (24000/1001) FPS
Color space                              : YUV
Chroma subsampling                       : 4:2:0
Bit depth                                : 10 bits
Scan type                                : Progressive
Bits/(Pixel*Frame)                       : 0.061
Stream size                              : 180 MiB (86%)
Writing library                          : x264 core 157 r2935 545de2f
Encoding settings                        : cabac=1 / ref=16 / deblock=1:0:0 / analyse=0x3:0x133 / me=umh / subme=10 / psy=1 / psy_rd=0.72:0.00 / mixed_ref=1 / me_range=24 / chroma_me=1 / trellis=2 / 8x8dct=1 / cqm=0 / deadzone=21,11 / fast_pskip=0 / chroma_qp_offset=-2 / threads=8 / lookahead_threads=2 / sliced_threads=0 / nr=0 / decimate=0 / interlaced=0 / bluray_compat=0 / constrained_intra=0 / bframes=10 / b_pyramid=2 / b_adapt=2 / b_bias=0 / direct=3 / weightb=1 / open_gop=0 / weightp=2 / keyint=480 / keyint_min=24 / scenecut=40 / intra_refresh=0 / rc_lookahead=60 / rc=crf / mbtree=1 / crf=17.0 / qcomp=0.70 / qpmin=0 / qpmax=81 / qpstep=4 / ip_ratio=1.40 / aq=3:0.85
Language                                 : Japanese
Default                                  : Yes
Forced                                   : No

Audio
ID                                       : 2
Format                                   : E-AC-3
Format/Info                              : Enhanced AC-3
Commercial name                          : Dolby Digital Plus
Codec ID                                 : A_EAC3
Duration                                 : 14 min 40 s
Bit rate mode                            : Constant
Bit rate                                 : 224 kb/s
Channel(s)                               : 2 channels
Channel layout                           : L R
Sampling rate                            : 48.0 kHz
Frame rate                               : 31.250 FPS (1536 SPF)
Compression mode                         : Lossy
Stream size                              : 23.5 MiB (11%)
Language                                 : Japanese
Service kind                             : Complete Main
Default                                  : Yes
Forced                                   : No

Text
ID                                       : 3
Format                                   : ASS
Codec ID                                 : S_TEXT/ASS
Codec ID/Info                            : Advanced Sub Station Alpha
Duration                                 : 13 min 42 s
Bit rate                                 : 63 b/s
Count of elements                        : 107
Compression mode                         : Lossless
Stream size                              : 6.41 KiB (0%)
Title                                    : No Honorifics
Language                                 : English
Default                                  : Yes
Forced                                   : No

Menu
00:00:00.000                             : en:Episode
00:10:49.399                             : en:ED
00:11:35.028                             : en:Bonus
00:14:29.911                             : en:Title Card
00:14:34.916                             : en:Illustration

Other Files in this Torrent
[GJM] Manaria Friends - 09 [1835927C].mkv
beta
Anime DDL+NZB mirror
Current Time: 29/11/2020 13:24



About/FAQs