[GJM] Manaria Friends - 03 [616BBB38].mkv


File Size156.0 MB (163,570,065 bytes)
DownloadClickNUpload | Jheberg | MultiUp
  • BdUpload
  • DownAce
  • Fichier
  • FileCloud
  • Filerio
  • FilesCdn
  • IndiShare
  • Kbagi
  • Turbobit
  • UpToBox
  • Uppit
| SolidFiles | UploadFiles | ZippyShare
HashesCRC32: 616BBB38, MD5: 1408739E771173DE8FE84289B736D6F9, SHA1: BD93A98B0DCA171FA178E9C44DF33A4A6740A66F, SHA256: 2113AB687841B2B6FF5935A7CE06B263AE7C6977298A227BCC519B631E6B141E, ED2K: C154AD6F92C9853CC3DB347EA80880CA
Screenshots
screenshotscreenshotscreenshotscreenshotscreenshot
SubtitlesAll Attachments | No Honorifics [eng, ASS]
Additional Info
General
Unique ID                                : 280187869672846733951243207914161287685 (0xD2CA388808793F4CB7364064C4C1B205)
Complete name                            : [GJM] Manaria Friends - 03 [616BBB38].mkv
Format                                   : Matroska
Format version                           : Version 4
File size                                : 156 MiB
Duration                                 : 13 min 54 s
Overall bit rate                         : 1 567 kb/s
Encoded date                             : UTC 2019-02-09 10:45:58
Writing application                      : mkvmerge v30.1.0 ('Forever And More') 32-bit
Writing library                          : libebml v1.3.6 + libmatroska v1.4.9
Attachments                              : GANDHISANS-BOLD.OTF / GANDHISANS-BOLDITALIC.OTF / ZCOOLXIAOWEI-REGULAR.TTF / ALEGREYA-REGULAR.OTF

Video
ID                                       : 1
Format                                   : AVC
Format/Info                              : Advanced Video Codec
Format profile                           : High 10@L5
Format settings                          : CABAC / 16 Ref Frames
Format settings, CABAC                   : Yes
Format settings, ReFrames                : 16 frames
Codec ID                                 : V_MPEG4/ISO/AVC
Duration                                 : 13 min 54 s
Bit rate                                 : 1 374 kb/s
Width                                    : 1 440 pixels
Height                                   : 810 pixels
Display aspect ratio                     : 16:9
Frame rate mode                          : Constant
Frame rate                               : 23.976 (24000/1001) FPS
Color space                              : YUV
Chroma subsampling                       : 4:2:0
Bit depth                                : 10 bits
Scan type                                : Progressive
Bits/(Pixel*Frame)                       : 0.049
Stream size                              : 137 MiB (88%)
Writing library                          : x264 core 157 r2935 545de2f
Encoding settings                        : cabac=1 / ref=16 / deblock=1:0:0 / analyse=0x3:0x133 / me=umh / subme=10 / psy=1 / psy_rd=0.72:0.00 / mixed_ref=1 / me_range=24 / chroma_me=1 / trellis=2 / 8x8dct=1 / cqm=0 / deadzone=21,11 / fast_pskip=0 / chroma_qp_offset=-2 / threads=25 / lookahead_threads=6 / sliced_threads=0 / nr=0 / decimate=0 / interlaced=0 / bluray_compat=0 / constrained_intra=0 / bframes=10 / b_pyramid=2 / b_adapt=2 / b_bias=0 / direct=3 / weightb=1 / open_gop=0 / weightp=2 / keyint=240 / keyint_min=24 / scenecut=40 / intra_refresh=0 / rc_lookahead=60 / rc=crf / mbtree=1 / crf=17.0 / qcomp=0.70 / qpmin=0 / qpmax=81 / qpstep=4 / ip_ratio=1.40 / aq=3:0.85
Language                                 : Japanese
Default                                  : Yes
Forced                                   : No

Audio
ID                                       : 2
Format                                   : AAC LC
Format/Info                              : Advanced Audio Codec Low Complexity
Codec ID                                 : A_AAC-2
Duration                                 : 13 min 54 s
Bit rate                                 : 128 kb/s
Channel(s)                               : 2 channels
Channel layout                           : L R
Sampling rate                            : 44.1 kHz
Frame rate                               : 43.066 FPS (1024 SPF)
Compression mode                         : Lossy
Stream size                              : 12.7 MiB (8%)
Language                                 : Japanese
Default                                  : Yes
Forced                                   : No

Text
ID                                       : 3
Format                                   : ASS
Codec ID                                 : S_TEXT/ASS
Codec ID/Info                            : Advanced Sub Station Alpha
Duration                                 : 13 min 34 s
Bit rate                                 : 82 b/s
Count of elements                        : 166
Compression mode                         : Lossless
Stream size                              : 8.18 KiB (0%)
Title                                    : No Honorifics
Language                                 : English
Default                                  : Yes
Forced                                   : No

Menu
00:00:00.000                             : en:Episode
00:10:48.940                             : en:ED
00:11:35.945                             : en:Bonus
00:13:44.949                             : en:Title Card
00:13:49.954                             : en:Illustration

Other Files in this Torrent
[GJM] Manaria Friends - 03 [616BBB38].mkv
beta
Anime DDL+NZB mirror
Current Time: 29/11/2020 14:05



About/FAQs