[GJM] Manaria Friends - 01 [13619F1B].mkv


File Size237.4 MB (248,910,207 bytes)
DownloadClickNUpload | Jheberg | MultiUp
  • BdUpload
  • DownAce
  • Fichier
  • FileCloud
  • Filerio
  • FilesCdn
  • IndiShare
  • Kbagi
  • Turbobit
  • UpToBox
  • Uppit
| SolidFiles | UploadFiles | ZippyShare
HashesCRC32: 13619F1B, MD5: 75BA7B6218277B57D042D6836179E4DD, SHA1: 21D2F37B75882112179AE85B1AAB6D19AFC6A811, SHA256: E95B08EADCF4632368879783BB5DE5140DBFEBF657D486258FCC73A5AB82D80F, ED2K: 22A1CC6C75B5BB1AACEB8A8035512683
Screenshots
screenshotscreenshotscreenshotscreenshotscreenshot
SubtitlesAll Attachments | No Honorifics [eng, ASS]
Additional Info
General
Unique ID                                : 71507269362685233953843768504165408999 (0x35CBCC93D44C521938C30E38CB5520E7)
Complete name                            : [GJM] Manaria Friends - 01 [13619F1B].mkv
Format                                   : Matroska
Format version                           : Version 4
File size                                : 237 MiB
Duration                                 : 14 min 3 s
Overall bit rate                         : 2 362 kb/s
Encoded date                             : UTC 2019-01-24 08:09:54
Writing application                      : mkvmerge v30.1.0 ('Forever And More') 32-bit
Writing library                          : libebml v1.3.6 + libmatroska v1.4.9
Attachments                              : GANDHISANS-BOLD.OTF / GANDHISANS-BOLDITALIC.OTF / ZCOOLXIAOWEI-REGULAR.TTF / ALEGREYA-REGULAR.OTF

Video
ID                                       : 1
Format                                   : AVC
Format/Info                              : Advanced Video Codec
Format profile                           : High 10@L5
Format settings                          : CABAC / 16 Ref Frames
Format settings, CABAC                   : Yes
Format settings, ReFrames                : 16 frames
Codec ID                                 : V_MPEG4/ISO/AVC
Duration                                 : 14 min 3 s
Bit rate                                 : 2 169 kb/s
Width                                    : 1 440 pixels
Height                                   : 810 pixels
Display aspect ratio                     : 16:9
Frame rate mode                          : Constant
Frame rate                               : 23.976 (24000/1001) FPS
Color space                              : YUV
Chroma subsampling                       : 4:2:0
Bit depth                                : 10 bits
Scan type                                : Progressive
Bits/(Pixel*Frame)                       : 0.078
Stream size                              : 218 MiB (92%)
Writing library                          : x264 core 157 r2935 545de2f
Encoding settings                        : cabac=1 / ref=16 / deblock=1:0:0 / analyse=0x3:0x133 / me=umh / subme=10 / psy=1 / psy_rd=0.72:0.00 / mixed_ref=1 / me_range=24 / chroma_me=1 / trellis=2 / 8x8dct=1 / cqm=0 / deadzone=21,11 / fast_pskip=0 / chroma_qp_offset=-2 / threads=25 / lookahead_threads=6 / sliced_threads=0 / nr=0 / decimate=0 / interlaced=0 / bluray_compat=0 / constrained_intra=0 / bframes=10 / b_pyramid=2 / b_adapt=2 / b_bias=0 / direct=3 / weightb=1 / open_gop=0 / weightp=2 / keyint=240 / keyint_min=1 / scenecut=40 / intra_refresh=0 / rc_lookahead=60 / rc=crf / mbtree=1 / crf=17.0 / qcomp=0.70 / qpmin=0 / qpmax=81 / qpstep=4 / ip_ratio=1.40 / aq=3:0.80
Language                                 : Japanese
Default                                  : Yes
Forced                                   : No

Audio
ID                                       : 2
Format                                   : AAC LC
Format/Info                              : Advanced Audio Codec Low Complexity
Codec ID                                 : A_AAC-2
Duration                                 : 14 min 3 s
Bit rate                                 : 128 kb/s
Channel(s)                               : 2 channels
Channel layout                           : L R
Sampling rate                            : 44.1 kHz
Frame rate                               : 43.066 FPS (1024 SPF)
Compression mode                         : Lossy
Stream size                              : 12.9 MiB (5%)
Language                                 : Japanese
Default                                  : Yes
Forced                                   : No

Text
ID                                       : 3
Format                                   : ASS
Codec ID                                 : S_TEXT/ASS
Codec ID/Info                            : Advanced Sub Station Alpha
Duration                                 : 13 min 41 s
Bit rate                                 : 77 b/s
Count of elements                        : 147
Compression mode                         : Lossless
Stream size                              : 7.72 KiB (0%)
Title                                    : No Honorifics
Language                                 : English
Default                                  : Yes
Forced                                   : No

Menu
00:00:00.000                             : en:Episode
00:10:50.066                             : en:ED
00:11:37.030                             : en:Bonus
00:13:53.041                             : en:Title Card
00:13:58.046                             : en:Illustration

Other Files in this Torrent
[GJM] Manaria Friends - 01 [13619F1B].mkv
beta
Anime DDL+NZB mirror
Current Time: 29/11/2020 13:38



About/FAQs