File Size279.4 MB (292,969,496 bytes)
DownloadAnonFiles | ClickNUpload | DropAPK | Free | MultiUp
  • BdUpload
  • DownAce
  • Fichier
  • FileCloud
  • Filerio
  • FilesCdn
  • IndiShare
  • Kbagi
  • Turbobit
  • UpToBox
  • Uppit
| Sendspace | SolidFiles | ZippyShare
HashesCRC32: 41CB70DC, MD5: 5A62267B4D33A07C2F726A9AE7D6AA18, SHA1: 3C5F076D346748A6E85C1ACE5C6B8C387C8DC974, SHA256: F13E5B334A5DE01E88A0A109F7C2D3EA0C0DD91F69D84AE05C73FA2AE95694D6, ED2K: 768910C7CAC0C0E2ACEE69FDDAFDCEE3
Screenshots
screenshotscreenshotscreenshotscreenshotscreenshot
Additional Info
General
Complete name                            : Episode 25.mp4
Format                                   : MPEG-4
Format profile                           : Base Media / Version 2
Codec ID                                 : mp42 (isom/mp42)
File size                                : 279 MiB
Duration                                 : 24 min 32 s
Overall bit rate mode                    : Variable
Overall bit rate                         : 1 592 kb/s
Encoded date                             : UTC 2019-01-30 04:17:42
Tagged date                              : UTC 2019-01-30 04:17:42
gsst                                     : 0
gstd                                     : 1472609

Video
ID                                       : 1
Format                                   : AVC
Format/Info                              : Advanced Video Codec
Format profile                           : Main@L3.1
Format settings                          : CABAC / 3 Ref Frames
Format settings, CABAC                   : Yes
Format settings, ReFrames                : 3 frames
Codec ID                                 : avc1
Codec ID/Info                            : Advanced Video Coding
Duration                                 : 24 min 32 s
Bit rate                                 : 1 462 kb/s
Width                                    : 1 280 pixels
Height                                   : 720 pixels
Display aspect ratio                     : 16:9
Frame rate mode                          : Variable
Frame rate                               : 23.976 (24000/1001) FPS
Minimum frame rate                       : 23.974 FPS
Maximum frame rate                       : 23.981 FPS
Color space                              : YUV
Chroma subsampling                       : 4:2:0
Bit depth                                : 8 bits
Scan type                                : Progressive
Bits/(Pixel*Frame)                       : 0.066
Stream size                              : 257 MiB (92%)
Title                                    : ISO Media file produced by Google Inc. Created on: 01/29/2019.
Encoded date                             : UTC 2019-01-30 04:17:42
Tagged date                              : UTC 2019-01-30 04:17:42
Color range                              : Limited
Color primaries                          : BT.709
Transfer characteristics                 : BT.709
Matrix coefficients                      : BT.709
Codec configuration box                  : avcC

Audio
ID                                       : 2
Format                                   : AAC LC
Format/Info                              : Advanced Audio Codec Low Complexity
Codec ID                                 : mp4a-40-2
Duration                                 : 24 min 32 s
Bit rate mode                            : Variable
Bit rate                                 : 126 kb/s
Channel(s)                               : 2 channels
Channel layout                           : L R
Sampling rate                            : 44.1 kHz
Frame rate                               : 43.066 FPS (1024 SPF)
Compression mode                         : Lossy
Stream size                              : 22.0 MiB (8%)
Title                                    : ISO Media file produced by Google Inc. Created on: 01/29/2019.
Language                                 : English
Encoded date                             : UTC 2019-01-30 04:17:42
Tagged date                              : UTC 2019-01-30 04:17:42

Other Files in this Torrent
Episode 25.mp4
beta
Anime DDL+NZB mirror
Current Time: 29/09/2021 01:32



About/FAQs

Discord