File Size234.1 MB (245,478,417 bytes)
DownloadAnonFiles | ClickNUpload | DropAPK | Free | MultiUp
  • BdUpload
  • DownAce
  • Fichier
  • FileCloud
  • Filerio
  • FilesCdn
  • IndiShare
  • Kbagi
  • Turbobit
  • UpToBox
  • Uppit
| Sendspace | SolidFiles | ZippyShare
HashesCRC32: 8014C5C0, MD5: E1CF33E9A94E9E8E9288337CE50127EE, SHA1: 20114FE8F9611379E1855BA520C2A24D3366D097, SHA256: 209C95585FA8EA7E38041F64EB540513CA9F05DF5F669655D8E358FC32263462, ED2K: CCDB87715E2AB2ED841EF9B47224044B
Screenshots
screenshotscreenshotscreenshotscreenshotscreenshot
Additional Info
General
Complete name                            : Episode 07.mp4
Format                                   : MPEG-4
Format profile                           : Base Media / Version 2
Codec ID                                 : mp42 (isom/mp42)
File size                                : 234 MiB
Duration                                 : 24 min 32 s
Overall bit rate mode                    : Variable
Overall bit rate                         : 1 334 kb/s
Encoded date                             : UTC 2017-03-15 07:19:53
Tagged date                              : UTC 2017-03-15 07:19:53
gsst                                     : 0
gstd                                     : 1472561

Video
ID                                       : 1
Format                                   : AVC
Format/Info                              : Advanced Video Codec
Format profile                           : High@L3.1
Format settings                          : CABAC / 1 Ref Frames
Format settings, CABAC                   : Yes
Format settings, ReFrames                : 1 frame
Codec ID                                 : avc1
Codec ID/Info                            : Advanced Video Coding
Duration                                 : 24 min 32 s
Bit rate                                 : 1 139 kb/s
Maximum bit rate                         : 5 168 kb/s
Width                                    : 1 280 pixels
Height                                   : 720 pixels
Display aspect ratio                     : 16:9
Frame rate mode                          : Constant
Frame rate                               : 23.976 (24000/1001) FPS
Color space                              : YUV
Chroma subsampling                       : 4:2:0
Bit depth                                : 8 bits
Scan type                                : Progressive
Bits/(Pixel*Frame)                       : 0.052
Stream size                              : 200 MiB (85%)
Tagged date                              : UTC 2017-03-15 07:20:26
Color range                              : Limited
Color primaries                          : BT.709
Transfer characteristics                 : BT.709
Matrix coefficients                      : BT.709
Codec configuration box                  : avcC

Audio
ID                                       : 2
Format                                   : AAC LC
Format/Info                              : Advanced Audio Codec Low Complexity
Codec ID                                 : mp4a-40-2
Duration                                 : 24 min 32 s
Bit rate mode                            : Variable
Bit rate                                 : 192 kb/s
Maximum bit rate                         : 202 kb/s
Channel(s)                               : 2 channels
Channel layout                           : L R
Sampling rate                            : 44.1 kHz
Frame rate                               : 43.066 FPS (1024 SPF)
Compression mode                         : Lossy
Stream size                              : 33.7 MiB (14%)
Title                                    : IsoMedia File Produced by Google, 5-11-2011
Language                                 : English
Encoded date                             : UTC 2017-03-15 07:20:11
Tagged date                              : UTC 2017-03-15 07:20:26

Other Files in this Torrent
Episode 07.mp4
beta
Anime DDL+NZB mirror
Current Time: 16/05/2021 06:32



About/FAQs