File Size239.6 MB (251,188,487 bytes)
DownloadAnonFiles | ClickNUpload | DropAPK | Free | MultiUp
  • BdUpload
  • DownAce
  • Fichier
  • FileCloud
  • Filerio
  • FilesCdn
  • IndiShare
  • Kbagi
  • Turbobit
  • UpToBox
  • Uppit
| Sendspace | SolidFiles | ZippyShare
HashesCRC32: A1B5B0A0, MD5: 1BEC2C44626F9601DB25AC3B96315711, SHA1: F660290EC2CA4B5073C61C4CEEFF6D54937D721A, SHA256: 0E43168A589EB654519DCC8A6D8222274A4304FC5C835F8FF3C3562560722624, ED2K: 9B9FCBA1995D01EFA5BA0A7B6CF656CD
Screenshots
screenshotscreenshotscreenshotscreenshotscreenshot
Additional Info
General
Complete name                            : Episode 17.mp4
Format                                   : MPEG-4
Format profile                           : Base Media / Version 2
Codec ID                                 : mp42 (isom/mp42)
File size                                : 240 MiB
Duration                                 : 26 min 2 s
Overall bit rate mode                    : Variable
Overall bit rate                         : 1 286 kb/s
Encoded date                             : UTC 2017-03-15 07:17:14
Tagged date                              : UTC 2017-03-15 07:17:14
gsst                                     : 0
gstd                                     : 1562610

Video
ID                                       : 1
Format                                   : AVC
Format/Info                              : Advanced Video Codec
Format profile                           : High@L3.1
Format settings                          : CABAC / 1 Ref Frames
Format settings, CABAC                   : Yes
Format settings, ReFrames                : 1 frame
Format settings, GOP                     : M=1, N=60
Codec ID                                 : avc1
Codec ID/Info                            : Advanced Video Coding
Duration                                 : 26 min 2 s
Bit rate                                 : 1 092 kb/s
Maximum bit rate                         : 4 534 kb/s
Width                                    : 1 280 pixels
Height                                   : 720 pixels
Display aspect ratio                     : 16:9
Frame rate mode                          : Constant
Frame rate                               : 23.976 (24000/1001) FPS
Color space                              : YUV
Chroma subsampling                       : 4:2:0
Bit depth                                : 8 bits
Scan type                                : Progressive
Bits/(Pixel*Frame)                       : 0.049
Stream size                              : 203 MiB (85%)
Tagged date                              : UTC 2017-03-15 07:18:11
Color range                              : Limited
Color primaries                          : BT.709
Transfer characteristics                 : BT.709
Matrix coefficients                      : BT.709
Codec configuration box                  : avcC

Audio
ID                                       : 2
Format                                   : AAC LC
Format/Info                              : Advanced Audio Codec Low Complexity
Codec ID                                 : mp4a-40-2
Duration                                 : 26 min 2 s
Bit rate mode                            : Variable
Bit rate                                 : 192 kb/s
Maximum bit rate                         : 202 kb/s
Channel(s)                               : 2 channels
Channel layout                           : L R
Sampling rate                            : 44.1 kHz
Frame rate                               : 43.066 FPS (1024 SPF)
Compression mode                         : Lossy
Stream size                              : 35.8 MiB (15%)
Title                                    : IsoMedia File Produced by Google, 5-11-2011
Language                                 : English
Encoded date                             : UTC 2017-03-15 07:17:47
Tagged date                              : UTC 2017-03-15 07:18:11

Other Files in this Torrent
Episode 17.mp4
beta
Anime DDL+NZB mirror
Current Time: 27/11/2021 03:20



About/FAQs

Discord