File Size238.5 MB (250,074,265 bytes)
DownloadAnonFiles | ClickNUpload | DropAPK | Free | MultiUp
  • BdUpload
  • DownAce
  • Fichier
  • FileCloud
  • Filerio
  • FilesCdn
  • IndiShare
  • Kbagi
  • Turbobit
  • UpToBox
  • Uppit
| Sendspace | SolidFiles | ZippyShare
HashesCRC32: 2D98C127, MD5: 3AB7515F28DDA340E5A14C7E8B116779, SHA1: ECAC9F5D775F11562CDE2045936E48D4EA1534FF, SHA256: 3EE920EBBB8B1F7D6BC9A2750AA9826B08A72A4A1EDB2E35746E0D89E99BE0F2, ED2K: D32241DE98162A8A58A134F33B89F9D8
Screenshots
screenshotscreenshotscreenshotscreenshotscreenshot
Additional Info
General
Complete name                            : Episode 01.mp4
Format                                   : MPEG-4
Format profile                           : Base Media / Version 2
Codec ID                                 : mp42 (isom/mp42)
File size                                : 238 MiB
Duration                                 : 24 min 32 s
Overall bit rate mode                    : Variable
Overall bit rate                         : 1 359 kb/s
Encoded date                             : UTC 2017-03-15 07:15:39
Tagged date                              : UTC 2017-03-15 07:15:39
gsst                                     : 0
gstd                                     : 1472538

Video
ID                                       : 1
Format                                   : AVC
Format/Info                              : Advanced Video Codec
Format profile                           : High@L3.1
Format settings                          : CABAC / 1 Ref Frames
Format settings, CABAC                   : Yes
Format settings, ReFrames                : 1 frame
Codec ID                                 : avc1
Codec ID/Info                            : Advanced Video Coding
Duration                                 : 24 min 32 s
Bit rate                                 : 1 164 kb/s
Maximum bit rate                         : 5 603 kb/s
Width                                    : 1 280 pixels
Height                                   : 720 pixels
Display aspect ratio                     : 16:9
Frame rate mode                          : Constant
Frame rate                               : 23.976 (24000/1001) FPS
Color space                              : YUV
Chroma subsampling                       : 4:2:0
Bit depth                                : 8 bits
Scan type                                : Progressive
Bits/(Pixel*Frame)                       : 0.053
Stream size                              : 204 MiB (86%)
Tagged date                              : UTC 2017-03-15 07:16:08
Color range                              : Limited
Color primaries                          : BT.709
Transfer characteristics                 : BT.709
Matrix coefficients                      : BT.709
Codec configuration box                  : avcC

Audio
ID                                       : 2
Format                                   : AAC LC
Format/Info                              : Advanced Audio Codec Low Complexity
Codec ID                                 : mp4a-40-2
Duration                                 : 24 min 32 s
Bit rate mode                            : Variable
Bit rate                                 : 192 kb/s
Maximum bit rate                         : 202 kb/s
Channel(s)                               : 2 channels
Channel layout                           : L R
Sampling rate                            : 44.1 kHz
Frame rate                               : 43.066 FPS (1024 SPF)
Compression mode                         : Lossy
Stream size                              : 33.7 MiB (14%)
Title                                    : IsoMedia File Produced by Google, 5-11-2011
Language                                 : English
Encoded date                             : UTC 2017-03-15 07:15:55
Tagged date                              : UTC 2017-03-15 07:16:08

Other Files in this Torrent
Episode 01.mp4
beta
Anime DDL+NZB mirror
Current Time: 16/06/2021 21:03



About/FAQs