File Size231.0 MB (242,250,120 bytes)
DownloadAnonFiles | ClickNUpload | DropAPK | Free | MultiUp
  • BdUpload
  • DownAce
  • Fichier
  • FileCloud
  • Filerio
  • FilesCdn
  • IndiShare
  • Kbagi
  • Turbobit
  • UpToBox
  • Uppit
| Sendspace | SolidFiles | ZippyShare
HashesCRC32: A88E8C7B, MD5: B5443743DA4AED14CDA711258051BE1F, SHA1: 2B1C02BCEA12C4891C0CB921BEADFEB351B35075, SHA256: 03F705D6031109F87CDCA9272FC7D0069DE29631E2FB56D7C76AB5CC8F52B3A3, ED2K: 934502C5FFAC511DEECDC84075F2E278
Screenshots
screenshotscreenshotscreenshotscreenshotscreenshot
Additional Info
General
Complete name                            : Episode 04.mp4
Format                                   : MPEG-4
Format profile                           : Base Media / Version 2
Codec ID                                 : mp42 (isom/mp42)
File size                                : 231 MiB
Duration                                 : 24 min 32 s
Overall bit rate mode                    : Variable
Overall bit rate                         : 1 316 kb/s
Encoded date                             : UTC 2017-03-15 07:14:20
Tagged date                              : UTC 2017-03-15 07:14:20
gsst                                     : 0
gstd                                     : 1472538

Video
ID                                       : 1
Format                                   : AVC
Format/Info                              : Advanced Video Codec
Format profile                           : High@L3.1
Format settings                          : CABAC / 1 Ref Frames
Format settings, CABAC                   : Yes
Format settings, ReFrames                : 1 frame
Codec ID                                 : avc1
Codec ID/Info                            : Advanced Video Coding
Duration                                 : 24 min 32 s
Bit rate                                 : 1 122 kb/s
Maximum bit rate                         : 5 361 kb/s
Width                                    : 1 280 pixels
Height                                   : 720 pixels
Display aspect ratio                     : 16:9
Frame rate mode                          : Constant
Frame rate                               : 23.976 (24000/1001) FPS
Color space                              : YUV
Chroma subsampling                       : 4:2:0
Bit depth                                : 8 bits
Scan type                                : Progressive
Bits/(Pixel*Frame)                       : 0.051
Stream size                              : 197 MiB (85%)
Tagged date                              : UTC 2017-03-15 07:14:44
Color range                              : Limited
Color primaries                          : BT.709
Transfer characteristics                 : BT.709
Matrix coefficients                      : BT.709
Codec configuration box                  : avcC

Audio
ID                                       : 2
Format                                   : AAC LC
Format/Info                              : Advanced Audio Codec Low Complexity
Codec ID                                 : mp4a-40-2
Duration                                 : 24 min 32 s
Bit rate mode                            : Variable
Bit rate                                 : 192 kb/s
Maximum bit rate                         : 202 kb/s
Channel(s)                               : 2 channels
Channel layout                           : L R
Sampling rate                            : 44.1 kHz
Frame rate                               : 43.066 FPS (1024 SPF)
Compression mode                         : Lossy
Stream size                              : 33.7 MiB (15%)
Title                                    : IsoMedia File Produced by Google, 5-11-2011
Language                                 : English
Encoded date                             : UTC 2017-03-15 07:14:31
Tagged date                              : UTC 2017-03-15 07:14:44

Other Files in this Torrent
Episode 04.mp4
beta
Anime DDL+NZB mirror
Current Time: 16/05/2021 05:28



About/FAQs