File Size451.6 MB (473,491,553 bytes)
DownloadClickNUpload | DropAPK | Free | MultiUp
  • BdUpload
  • DownAce
  • Fichier
  • FileCloud
  • Filerio
  • FilesCdn
  • IndiShare
  • Kbagi
  • Turbobit
  • UpToBox
  • Uppit
| SolidFiles | ZippyShare
HashesCRC32: A678F831, MD5: 7333C77048A8E7EA79687CDB1DD729C2, SHA1: BC6CD95B8AC3000F6BD5A7F8C478B32434F1E6F7, SHA256: 82465E90FFC2C6A6AADCF5A69EFD4C9D38F4F1FDCA8C53967B8A51C7E72A8CBF, ED2K: 4CCF3997EC294EDC9F4F1EC9002D1C46
Screenshots
screenshotscreenshotscreenshotscreenshotscreenshot
SubtitlesAll Attachments | Signs/Songs | KAA [eng, ASS], Full Subtitles | KAA [eng, ASS]
Additional Info
General
Unique ID                                : 184563102844873528589112654335934427770 (0x8AD98F8616F5EE195956F2F33FDB727A)
Complete name                            : Episode 04 - Land of Adults.mkv
Format                                   : Matroska
Format version                           : Version 4
File size                                : 452 MiB
Duration                                 : 24 min 21 s
Overall bit rate                         : 2 591 kb/s
Encoded date                             : UTC 2021-04-09 18:16:33
Writing application                      : mkvmerge v56.1.0 ('My Friend') 64-bit
Writing library                          : libebml v1.4.2 + libmatroska v1.6.4
Attachments                              : corbel.ttf / corbelb.ttf / CUSHNGH.TTF / RuzickaTypeK.ttf / segoeprb.ttf

Video
ID                                       : 1
Format                                   : AVC
Format/Info                              : Advanced Video Codec
Format profile                           : High 10@L4.1
Format settings                          : CABAC / 5 Ref Frames
Format settings, CABAC                   : Yes
Format settings, ReFrames                : 5 frames
Codec ID                                 : V_MPEG4/ISO/AVC
Duration                                 : 24 min 21 s
Bit rate                                 : 1 858 kb/s
Width                                    : 1 024 pixels
Height                                   : 576 pixels
Display aspect ratio                     : 16:9
Frame rate mode                          : Constant
Frame rate                               : 23.976 (24000/1001) FPS
Color space                              : YUV
Chroma subsampling                       : 4:2:0
Bit depth                                : 10 bits
Scan type                                : Progressive
Bits/(Pixel*Frame)                       : 0.131
Stream size                              : 324 MiB (72%)
Title                                    : AVC | 10-bit | CRF 18 | JPN DVD? | [x4subs]
Writing library                          : x264 core 135 r2345kMod f0c1c53
Encoding settings                        : cabac=1 / ref=5 / deblock=1:0:0 / analyse=0x3:0x113 / me=umh / subme=8 / psy=1 / fade_compensate=0.00 / psy_rd=0.90:0.05 / mixed_ref=1 / me_range=16 / chroma_me=1 / trellis=1 / 8x8dct=1 / cqm=0 / deadzone=21,11 / fast_pskip=0 / chroma_qp_offset=-3 / threads=6 / lookahead_threads=1 / sliced_threads=0 / nr=0 / decimate=1 / interlaced=0 / bluray_compat=0 / constrained_intra=0 / bframes=3 / b_pyramid=2 / b_adapt=2 / b_bias=0 / direct=3 / weightb=1 / open_gop=0 / weightp=2 / keyint=250 / keyint_min=23 / scenecut=40 / intra_refresh=0 / rc_lookahead=50 / rc=crf / mbtree=1 / crf=18.0000 / qcomp=0.60 / qpmin=0 / qpmax=81 / qpstep=4 / ip_ratio=1.40 / aq=1:1.00
Default                                  : Yes
Forced                                   : No

Audio #1
ID                                       : 2
Format                                   : Opus
Codec ID                                 : A_OPUS
Duration                                 : 24 min 21 s
Bit rate                                 : 470 kb/s
Channel(s)                               : 6 channels
Channel layout                           : L R C Ls Rs Cb LFE
Sampling rate                            : 48.0 kHz
Frame rate                               : 50.001 FPS (960 SPF)
Compression mode                         : Lossy
Delay relative to video                  : 13 ms
Stream size                              : 81.9 MiB (18%)
Title                                    : English 5.1 | Opus 512
Language                                 : English
Default                                  : Yes
Forced                                   : No

Audio #2
ID                                       : 3
Format                                   : Opus
Codec ID                                 : A_OPUS
Duration                                 : 24 min 21 s
Bit rate                                 : 255 kb/s
Channel(s)                               : 2 channels
Channel layout                           : L R
Sampling rate                            : 48.0 kHz
Frame rate                               : 50.001 FPS (960 SPF)
Compression mode                         : Lossy
Delay relative to video                  : 13 ms
Stream size                              : 44.4 MiB (10%)
Title                                    : Japanese 2.0 | Opus 256
Language                                 : Japanese
Default                                  : No
Forced                                   : No

Text #1
ID                                       : 4
Format                                   : ASS
Codec ID                                 : S_TEXT/ASS
Codec ID/Info                            : Advanced Sub Station Alpha
Duration                                 : 23 min 49 s
Bit rate                                 : 26 b/s
Count of elements                        : 51
Compression mode                         : Lossless
Stream size                              : 4.59 KiB (0%)
Title                                    : Signs/Songs | KAA
Language                                 : English
Default                                  : Yes
Forced                                   : No

Text #2
ID                                       : 5
Format                                   : ASS
Codec ID                                 : S_TEXT/ASS
Codec ID/Info                            : Advanced Sub Station Alpha
Duration                                 : 24 min 13 s
Bit rate                                 : 143 b/s
Count of elements                        : 405
Compression mode                         : Lossless
Stream size                              : 25.5 KiB (0%)
Title                                    : Full Subtitles | KAA
Language                                 : English
Default                                  : No
Forced                                   : No

Menu
00:00:00.000                             : :Opening
00:01:30.048                             : :Part A
00:12:45.014                             : :Part B
00:22:30.015                             : :Ending
00:23:50.012                             : :Preview

Other Files in this Torrent
Episode 04 - Land of Adults.mkv
beta
Anime DDL+NZB mirror
Current Time: 19/07/2024 09:10



About/FAQs

Discord