File Size395.1 MB (414,246,215 bytes)
DownloadClickNUpload | DropAPK | Free | MultiUp
  • BdUpload
  • DownAce
  • Fichier
  • FileCloud
  • Filerio
  • FilesCdn
  • IndiShare
  • Kbagi
  • Turbobit
  • UpToBox
  • Uppit
| SolidFiles | ZippyShare
HashesCRC32: 34F090EB, MD5: B076152D195B5C8F722F11CCE747858F, SHA1: 6C2039597668DD1671ED8C1D8EF75E02073D1E69, SHA256: 4BDB37F3870A298F060ADB543BB5B0C0228F035C813E21DF51DC82EE09ECFE47, ED2K: D9DE20546694606283B069AFCD447BC0
Screenshots
screenshotscreenshotscreenshotscreenshotscreenshot
SubtitlesAll Attachments | Signs/Songs | KAA [eng, ASS], Full Subtitles | KAA [eng, ASS]
Additional Info
General
Unique ID                                : 162934652045558005055774396676207666184 (0x7A941291AC271822C07AD3039635E408)
Complete name                            : Episode 13 - A Kind Land.mkv
Format                                   : Matroska
Format version                           : Version 4
File size                                : 395 MiB
Duration                                 : 23 min 58 s
Overall bit rate                         : 2 305 kb/s
Encoded date                             : UTC 2021-04-09 18:18:08
Writing application                      : mkvmerge v56.1.0 ('My Friend') 64-bit
Writing library                          : libebml v1.4.2 + libmatroska v1.6.4
Attachments                              : corbelb.ttf / CUSHNGH.TTF / RuzickaTypeK.ttf / segoeprb.ttf / corbel.ttf

Video
ID                                       : 1
Format                                   : AVC
Format/Info                              : Advanced Video Codec
Format profile                           : High 10@L4.1
Format settings                          : CABAC / 5 Ref Frames
Format settings, CABAC                   : Yes
Format settings, ReFrames                : 5 frames
Codec ID                                 : V_MPEG4/ISO/AVC
Duration                                 : 23 min 56 s
Bit rate                                 : 1 588 kb/s
Width                                    : 1 024 pixels
Height                                   : 576 pixels
Display aspect ratio                     : 16:9
Frame rate mode                          : Constant
Frame rate                               : 23.976 (24000/1001) FPS
Color space                              : YUV
Chroma subsampling                       : 4:2:0
Bit depth                                : 10 bits
Scan type                                : Progressive
Bits/(Pixel*Frame)                       : 0.112
Stream size                              : 272 MiB (69%)
Title                                    : AVC | 10-bit | CRF 18 | JPN DVD? | [x4subs]
Writing library                          : x264 core 135 r2345kMod f0c1c53
Encoding settings                        : cabac=1 / ref=5 / deblock=1:0:0 / analyse=0x3:0x113 / me=umh / subme=8 / psy=1 / fade_compensate=0.00 / psy_rd=0.90:0.05 / mixed_ref=1 / me_range=16 / chroma_me=1 / trellis=1 / 8x8dct=1 / cqm=0 / deadzone=21,11 / fast_pskip=0 / chroma_qp_offset=-3 / threads=6 / lookahead_threads=1 / sliced_threads=0 / nr=0 / decimate=1 / interlaced=0 / bluray_compat=0 / constrained_intra=0 / bframes=3 / b_pyramid=2 / b_adapt=2 / b_bias=0 / direct=3 / weightb=1 / open_gop=0 / weightp=2 / keyint=250 / keyint_min=23 / scenecut=40 / intra_refresh=0 / rc_lookahead=50 / rc=crf / mbtree=1 / crf=18.0000 / qcomp=0.60 / qpmin=0 / qpmax=81 / qpstep=4 / ip_ratio=1.40 / aq=1:1.00
Default                                  : Yes
Forced                                   : No

Audio #1
ID                                       : 2
Format                                   : Opus
Codec ID                                 : A_OPUS
Duration                                 : 23 min 57 s
Bit rate                                 : 455 kb/s
Channel(s)                               : 6 channels
Channel layout                           : L R C Ls Rs Cb LFE
Sampling rate                            : 48.0 kHz
Frame rate                               : 50.000 FPS (960 SPF)
Compression mode                         : Lossy
Delay relative to video                  : 19 ms
Stream size                              : 77.9 MiB (20%)
Title                                    : English 5.1 | Opus 512
Language                                 : English
Default                                  : Yes
Forced                                   : No

Audio #2
ID                                       : 3
Format                                   : Opus
Codec ID                                 : A_OPUS
Duration                                 : 23 min 57 s
Bit rate                                 : 255 kb/s
Channel(s)                               : 2 channels
Channel layout                           : L R
Sampling rate                            : 48.0 kHz
Frame rate                               : 50.000 FPS (960 SPF)
Compression mode                         : Lossy
Delay relative to video                  : 19 ms
Stream size                              : 43.7 MiB (11%)
Title                                    : Japanese 2.0 | Opus 256
Language                                 : Japanese
Default                                  : No
Forced                                   : No

Text #1
ID                                       : 4
Format                                   : ASS
Codec ID                                 : S_TEXT/ASS
Codec ID/Info                            : Advanced Sub Station Alpha
Duration                                 : 23 min 47 s
Bit rate                                 : 18 b/s
Count of elements                        : 45
Compression mode                         : Lossless
Stream size                              : 3.18 KiB (0%)
Title                                    : Signs/Songs | KAA
Language                                 : English
Default                                  : Yes
Forced                                   : No

Text #2
ID                                       : 5
Format                                   : ASS
Codec ID                                 : S_TEXT/ASS
Codec ID/Info                            : Advanced Sub Station Alpha
Duration                                 : 23 min 47 s
Bit rate                                 : 129 b/s
Count of elements                        : 389
Compression mode                         : Lossless
Stream size                              : 22.6 KiB (0%)
Title                                    : Full Subtitles | KAA
Language                                 : English
Default                                  : No
Forced                                   : No

Menu
00:00:00.000                             : :Opening
00:01:30.048                             : :Part A
00:14:49.013                             : :Part B
00:22:06.408                             : :Epilogue
00:22:35.020                             : :Ending

Other Files in this Torrent
Episode 13 - A Kind Land.mkv
beta
Anime DDL+NZB mirror
Current Time: 19/07/2024 08:32



About/FAQs

Discord