File Size381.7 MB (400,246,056 bytes)
DownloadAnonFiles | ClickNUpload | DropAPK | Free | MultiUp
  • BdUpload
  • DownAce
  • Fichier
  • FileCloud
  • Filerio
  • FilesCdn
  • IndiShare
  • Kbagi
  • Turbobit
  • UpToBox
  • Uppit
| SolidFiles | ZippyShare
HashesCRC32: 6FDE4FE1, MD5: 9D1FCFAA7F91BAA84B07EB0DACC782D8, SHA1: 4DC1A610EB8424CC5EE8A7776AFCA761F3A4CF8C, SHA256: FD660D6DC6CCF17E2C0D71D2B97DAE967B253E167F307A62607F5E77DBA7B212, ED2K: 38E691C5F3A86862F239107870A2F8F8
Screenshots
screenshotscreenshotscreenshotscreenshotscreenshot
SubtitlesAll Attachments | Signs/Songs | KAA [eng, ASS], Full Subtitles | KAA [eng, ASS]
Additional Info
General
Unique ID                                : 91882940057677573332599178109157880917 (0x452002B44AD2DBEE86DEE372A05BB455)
Complete name                            : Episode 10 - A Tale of Mechanical Dolls.mkv
Format                                   : Matroska
Format version                           : Version 4
File size                                : 382 MiB
Duration                                 : 24 min 23 s
Overall bit rate                         : 2 188 kb/s
Encoded date                             : UTC 2021-04-09 18:17:37
Writing application                      : mkvmerge v56.1.0 ('My Friend') 64-bit
Writing library                          : libebml v1.4.2 + libmatroska v1.6.4
Attachments                              : corbel.ttf / corbelb.ttf / CUSHNGH.TTF / RuzickaTypeK.ttf / segoeprb.ttf

Video
ID                                       : 1
Format                                   : AVC
Format/Info                              : Advanced Video Codec
Format profile                           : High 10@L4.1
Format settings                          : CABAC / 5 Ref Frames
Format settings, CABAC                   : Yes
Format settings, ReFrames                : 5 frames
Codec ID                                 : V_MPEG4/ISO/AVC
Duration                                 : 24 min 23 s
Bit rate                                 : 1 481 kb/s
Width                                    : 1 024 pixels
Height                                   : 576 pixels
Display aspect ratio                     : 16:9
Frame rate mode                          : Constant
Frame rate                               : 23.976 (24000/1001) FPS
Color space                              : YUV
Chroma subsampling                       : 4:2:0
Bit depth                                : 10 bits
Scan type                                : Progressive
Bits/(Pixel*Frame)                       : 0.105
Stream size                              : 258 MiB (68%)
Title                                    : AVC | 10-bit | CRF 18 | JPN DVD? | [x4subs]
Writing library                          : x264 core 135 r2345kMod f0c1c53
Encoding settings                        : cabac=1 / ref=5 / deblock=1:0:0 / analyse=0x3:0x113 / me=umh / subme=8 / psy=1 / fade_compensate=0.00 / psy_rd=0.90:0.05 / mixed_ref=1 / me_range=16 / chroma_me=1 / trellis=1 / 8x8dct=1 / cqm=0 / deadzone=21,11 / fast_pskip=0 / chroma_qp_offset=-3 / threads=6 / lookahead_threads=1 / sliced_threads=0 / nr=0 / decimate=1 / interlaced=0 / bluray_compat=0 / constrained_intra=0 / bframes=3 / b_pyramid=2 / b_adapt=2 / b_bias=0 / direct=3 / weightb=1 / open_gop=0 / weightp=2 / keyint=250 / keyint_min=23 / scenecut=40 / intra_refresh=0 / rc_lookahead=50 / rc=crf / mbtree=1 / crf=18.0000 / qcomp=0.60 / qpmin=0 / qpmax=81 / qpstep=4 / ip_ratio=1.40 / aq=1:1.00
Default                                  : Yes
Forced                                   : No

Audio #1
ID                                       : 2
Format                                   : Opus
Codec ID                                 : A_OPUS
Duration                                 : 24 min 21 s
Bit rate                                 : 448 kb/s
Channel(s)                               : 6 channels
Channel layout                           : L R C Ls Rs Cb LFE
Sampling rate                            : 48.0 kHz
Frame rate                               : 50.001 FPS (960 SPF)
Compression mode                         : Lossy
Delay relative to video                  : 19 ms
Stream size                              : 78.2 MiB (20%)
Title                                    : English 5.1 | Opus 512
Language                                 : English
Default                                  : Yes
Forced                                   : No

Audio #2
ID                                       : 3
Format                                   : Opus
Codec ID                                 : A_OPUS
Duration                                 : 24 min 21 s
Bit rate                                 : 250 kb/s
Channel(s)                               : 2 channels
Channel layout                           : L R
Sampling rate                            : 48.0 kHz
Frame rate                               : 50.001 FPS (960 SPF)
Compression mode                         : Lossy
Delay relative to video                  : 19 ms
Stream size                              : 43.6 MiB (11%)
Title                                    : Japanese 2.0 | Opus 256
Language                                 : Japanese
Default                                  : No
Forced                                   : No

Text #1
ID                                       : 4
Format                                   : ASS
Codec ID                                 : S_TEXT/ASS
Codec ID/Info                            : Advanced Sub Station Alpha
Duration                                 : 23 min 49 s
Bit rate                                 : 19 b/s
Count of elements                        : 44
Compression mode                         : Lossless
Stream size                              : 3.34 KiB (0%)
Title                                    : Signs/Songs | KAA
Language                                 : English
Default                                  : Yes
Forced                                   : No

Text #2
ID                                       : 5
Format                                   : ASS
Codec ID                                 : S_TEXT/ASS
Codec ID/Info                            : Advanced Sub Station Alpha
Duration                                 : 24 min 11 s
Bit rate                                 : 129 b/s
Count of elements                        : 395
Compression mode                         : Lossless
Stream size                              : 23.0 KiB (0%)
Title                                    : Full Subtitles | KAA
Language                                 : English
Default                                  : No
Forced                                   : No

Menu
00:00:00.000                             : :Opening
00:01:30.048                             : :Part A
00:11:58.051                             : :Part B
00:22:30.015                             : :Ending
00:23:50.012                             : :Preview

Other Files in this Torrent
Episode 10 - A Tale of Mechanical Dolls.mkv
beta
Anime DDL+NZB mirror
Current Time: 19/07/2024 09:04



About/FAQs

Discord