File Size359.0 MB (376,490,879 bytes)
DownloadAnonFiles | ClickNUpload | DropAPK | Free | MultiUp
  • BdUpload
  • DownAce
  • Fichier
  • FileCloud
  • Filerio
  • FilesCdn
  • IndiShare
  • Kbagi
  • Turbobit
  • UpToBox
  • Uppit
| SolidFiles | ZippyShare
HashesCRC32: 1BADC885, MD5: FC207CAB55EB73BC996330C48CE56E5A, SHA1: DBC986DDB1DAFA93881DE3F92A4CA83C9BDBC8EF, SHA256: 3BB6B8F82AF57841FD2FD6002FE45A16CAE57672B479E8C1F07C7CB50A7A3214, ED2K: 427702BBDBC2994AAFE781E0BA7237A4
Screenshots
screenshotscreenshotscreenshotscreenshotscreenshot
SubtitlesAll Attachments | Signs/Songs | KAA [eng, ASS], Full Subtitles | KAA [eng, ASS]
Additional Info
General
Unique ID                                : 311651254394858679030822549137459405941 (0xEA75D92A7BAAA90D8C4098685EAA6475)
Complete name                            : Episode 02 - A Tale of Feeding Off Others.mkv
Format                                   : Matroska
Format version                           : Version 4
File size                                : 359 MiB
Duration                                 : 24 min 21 s
Overall bit rate                         : 2 060 kb/s
Encoded date                             : UTC 2021-04-09 18:16:11
Writing application                      : mkvmerge v56.1.0 ('My Friend') 64-bit
Writing library                          : libebml v1.4.2 + libmatroska v1.6.4
Attachments                              : CUSHNGH.TTF / RuzickaTypeK.ttf / segoeprb.ttf / corbel.ttf / corbelb.ttf

Video
ID                                       : 1
Format                                   : AVC
Format/Info                              : Advanced Video Codec
Format profile                           : High 10@L4.1
Format settings                          : CABAC / 5 Ref Frames
Format settings, CABAC                   : Yes
Format settings, ReFrames                : 5 frames
Codec ID                                 : V_MPEG4/ISO/AVC
Duration                                 : 24 min 21 s
Bit rate                                 : 1 373 kb/s
Width                                    : 1 024 pixels
Height                                   : 576 pixels
Display aspect ratio                     : 16:9
Frame rate mode                          : Constant
Frame rate                               : 23.976 (24000/1001) FPS
Color space                              : YUV
Chroma subsampling                       : 4:2:0
Bit depth                                : 10 bits
Scan type                                : Progressive
Bits/(Pixel*Frame)                       : 0.097
Stream size                              : 239 MiB (67%)
Title                                    : AVC | 10-bit | CRF 18 | JPN DVD? | [x4subs]
Writing library                          : x264 core 135 r2345kMod f0c1c53
Encoding settings                        : cabac=1 / ref=5 / deblock=1:0:0 / analyse=0x3:0x113 / me=umh / subme=8 / psy=1 / fade_compensate=0.00 / psy_rd=0.90:0.05 / mixed_ref=1 / me_range=16 / chroma_me=1 / trellis=1 / 8x8dct=1 / cqm=0 / deadzone=21,11 / fast_pskip=0 / chroma_qp_offset=-3 / threads=6 / lookahead_threads=1 / sliced_threads=0 / nr=0 / decimate=1 / interlaced=0 / bluray_compat=0 / constrained_intra=0 / bframes=3 / b_pyramid=2 / b_adapt=2 / b_bias=0 / direct=3 / weightb=1 / open_gop=0 / weightp=2 / keyint=250 / keyint_min=23 / scenecut=40 / intra_refresh=0 / rc_lookahead=50 / rc=crf / mbtree=1 / crf=18.0000 / qcomp=0.60 / qpmin=0 / qpmax=81 / qpstep=4 / ip_ratio=1.40 / aq=1:1.00
Default                                  : Yes
Forced                                   : No

Audio #1
ID                                       : 2
Format                                   : Opus
Codec ID                                 : A_OPUS
Duration                                 : 24 min 21 s
Bit rate                                 : 432 kb/s
Channel(s)                               : 6 channels
Channel layout                           : L R C Ls Rs Cb LFE
Sampling rate                            : 48.0 kHz
Frame rate                               : 50.001 FPS (960 SPF)
Compression mode                         : Lossy
Delay relative to video                  : 14 ms
Stream size                              : 75.3 MiB (21%)
Title                                    : English 5.1 | Opus 512
Language                                 : English
Default                                  : Yes
Forced                                   : No

Audio #2
ID                                       : 3
Format                                   : Opus
Codec ID                                 : A_OPUS
Duration                                 : 24 min 21 s
Bit rate                                 : 247 kb/s
Channel(s)                               : 2 channels
Channel layout                           : L R
Sampling rate                            : 48.0 kHz
Frame rate                               : 50.001 FPS (960 SPF)
Compression mode                         : Lossy
Delay relative to video                  : 14 ms
Stream size                              : 43.0 MiB (12%)
Title                                    : Japanese 2.0 | Opus 256
Language                                 : Japanese
Default                                  : No
Forced                                   : No

Text #1
ID                                       : 4
Format                                   : ASS
Codec ID                                 : S_TEXT/ASS
Codec ID/Info                            : Advanced Sub Station Alpha
Duration                                 : 23 min 49 s
Bit rate                                 : 22 b/s
Count of elements                        : 48
Compression mode                         : Lossless
Stream size                              : 3.85 KiB (0%)
Title                                    : Signs/Songs | KAA
Language                                 : English
Default                                  : Yes
Forced                                   : No

Text #2
ID                                       : 5
Format                                   : ASS
Codec ID                                 : S_TEXT/ASS
Codec ID/Info                            : Advanced Sub Station Alpha
Duration                                 : 24 min 12 s
Bit rate                                 : 107 b/s
Count of elements                        : 298
Compression mode                         : Lossless
Stream size                              : 19.0 KiB (0%)
Title                                    : Full Subtitles | KAA
Language                                 : English
Default                                  : No
Forced                                   : No

Menu
00:00:00.000                             : :Opening
00:01:30.048                             : :Part A
00:11:13.047                             : :Part B
00:22:30.057                             : :Ending
00:23:50.095                             : :Preview

Other Files in this Torrent
Episode 02 - A Tale of Feeding Off Others.mkv
beta
Anime DDL+NZB mirror
Current Time: 12/07/2024 14:04



About/FAQs

Discord