File Size352.6 MB (369,714,184 bytes)
DownloadClickNUpload | Go4Up | Jheberg | MultiUp | OpenLoad | SolidFiles | ZippyShare
Sendspace: Part1, Part2
Encrypted DownloadDirect
Password:
HashesCRC32: 60085434, MD5: 6EFF92272FCE23EF1DB033B7F54667AB, SHA1: 2534E808845D3FDF07E5045B3CE02869CC2128A9, SHA256: E359B7CC78E82A095B07D65039F32EB8A9CD18CC8C31D47A32369D11B46CED54, ED2K: 48736D4ABEA8E3707736D33EC5CD9831
Screenshots
screenshotscreenshotscreenshotscreenshotscreenshot
SubtitlesAll Attachments | eng [ASS], ara [ASS], fre [ASS], ita [ASS], por [ASS], rus [ASS], spa [ASS], spa [ASS]
Additional Info
General
Unique ID                                : 254195923673037668868116306148342413247 (0xBF3C5AA73C39F7ABB9B4D1D0C6B4B7BF)
Complete name                            : Angels of Death - 12 - Try to know everything about Her  [MCR] [60085434].mkv
Format                                   : Matroska
Format version                           : Version 4 / Version 2
File size                                : 353 MiB
Duration                                 : 23 min 40 s
Overall bit rate                         : 2 082 kb/s
Movie name                               : Angels of Death - 12 - Try to know everything about Her  [MCR]
Encoded date                             : UTC 2018-10-10 00:03:40
Writing application                      : mkvmerge v15.0.0 ('Duel with the Devil') 64-bit
Writing library                          : libebml v1.3.5 + libmatroska v1.4.5
Cover                                    : Yes
Attachments                              : cover.jpg
Encoded by                               : MCR

Video
ID                                       : 1
Format                                   : HEVC
Format/Info                              : High Efficiency Video Coding
Format profile                           : Main 10@L4@Main
Codec ID                                 : V_MPEGH/ISO/HEVC
Duration                                 : 23 min 40 s
Bit rate                                 : 1 744 kb/s
Width                                    : 1 920 pixels
Height                                   : 1 080 pixels
Display aspect ratio                     : 16:9
Frame rate mode                          : Constant
Frame rate                               : 23.976 (24000/1001) FPS
Color space                              : YUV
Chroma subsampling                       : 4:2:0
Bit depth                                : 10 bits
Bits/(Pixel*Frame)                       : 0.035
Stream size                              : 295 MiB (84%)
Title                                    : [MCR]
Default                                  : Yes
Forced                                   : No

Audio #1
ID                                       : 2
Format                                   : AAC
Format/Info                              : Advanced Audio Codec
Format profile                           : LC
Codec ID                                 : A_AAC
Duration                                 : 23 min 39 s
Bit rate                                 : 206 kb/s
Channel(s)                               : 2 channels
Channel positions                        : Front: L R
Sampling rate                            : 48.0 kHz
Frame rate                               : 46.875 FPS (1024 spf)
Compression mode                         : Lossy
Delay relative to video                  : 20 ms
Stream size                              : 34.9 MiB (10%)
Language                                 : English
Default                                  : Yes
Forced                                   : No

Audio #2
ID                                       : 3
Format                                   : AAC
Format/Info                              : Advanced Audio Codec
Format profile                           : LC
Codec ID                                 : A_AAC
Duration                                 : 23 min 39 s
Bit rate                                 : 128 kb/s
Channel(s)                               : 2 channels
Channel positions                        : Front: L R
Sampling rate                            : 44.1 kHz
Frame rate                               : 43.066 FPS (1024 spf)
Compression mode                         : Lossy
Delay relative to video                  : 22 ms
Stream size                              : 21.7 MiB (6%)
Language                                 : Japanese
Default                                  : No
Forced                                   : No

Text #1
ID                                       : 4
Format                                   : ASS
Codec ID                                 : S_TEXT/ASS
Codec ID/Info                            : Advanced Sub Station Alpha
Duration                                 : 21 min 27 s
Bit rate                                 : 102 b/s
Count of elements                        : 260
Compression mode                         : Lossless
Stream size                              : 16.1 KiB (0%)
Language                                 : English
Default                                  : No
Forced                                   : No

Text #2
ID                                       : 5
Format                                   : ASS
Codec ID                                 : S_TEXT/ASS
Codec ID/Info                            : Advanced Sub Station Alpha
Duration                                 : 23 min 34 s
Bit rate                                 : 108 b/s
Count of elements                        : 263
Compression mode                         : Lossless
Stream size                              : 18.7 KiB (0%)
Language                                 : Arabic
Default                                  : No
Forced                                   : No

Text #3
ID                                       : 6
Format                                   : ASS
Codec ID                                 : S_TEXT/ASS
Codec ID/Info                            : Advanced Sub Station Alpha
Duration                                 : 23 min 34 s
Bit rate                                 : 99 b/s
Count of elements                        : 259
Compression mode                         : Lossless
Stream size                              : 17.2 KiB (0%)
Language                                 : French
Default                                  : No
Forced                                   : No

Text #4
ID                                       : 7
Format                                   : ASS
Codec ID                                 : S_TEXT/ASS
Codec ID/Info                            : Advanced Sub Station Alpha
Duration                                 : 21 min 27 s
Bit rate                                 : 107 b/s
Count of elements                        : 272
Compression mode                         : Lossless
Stream size                              : 16.9 KiB (0%)
Language                                 : Italian
Default                                  : No
Forced                                   : No

Text #5
ID                                       : 8
Format                                   : ASS
Codec ID                                 : S_TEXT/ASS
Codec ID/Info                            : Advanced Sub Station Alpha
Duration                                 : 23 min 34 s
Bit rate                                 : 103 b/s
Count of elements                        : 252
Compression mode                         : Lossless
Stream size                              : 17.9 KiB (0%)
Language                                 : Portuguese
Default                                  : No
Forced                                   : No

Text #6
ID                                       : 9
Format                                   : ASS
Codec ID                                 : S_TEXT/ASS
Codec ID/Info                            : Advanced Sub Station Alpha
Duration                                 : 23 min 34 s
Bit rate                                 : 160 b/s
Count of elements                        : 306
Compression mode                         : Lossless
Stream size                              : 27.7 KiB (0%)
Language                                 : Russian
Default                                  : No
Forced                                   : No

Text #7
ID                                       : 10
Format                                   : ASS
Codec ID                                 : S_TEXT/ASS
Codec ID/Info                            : Advanced Sub Station Alpha
Duration                                 : 23 min 34 s
Bit rate                                 : 91 b/s
Count of elements                        : 248
Compression mode                         : Lossless
Stream size                              : 15.9 KiB (0%)
Language                                 : Spanish
Default                                  : No
Forced                                   : No

Text #8
ID                                       : 11
Format                                   : ASS
Codec ID                                 : S_TEXT/ASS
Codec ID/Info                            : Advanced Sub Station Alpha
Duration                                 : 23 min 34 s
Bit rate                                 : 91 b/s
Count of elements                        : 248
Compression mode                         : Lossless
Stream size                              : 15.9 KiB (0%)
Language                                 : Spanish
Default                                  : No
Forced                                   : No

Menu
00:00:00.000                             : :Prologue
00:02:35.030                             : :OP
00:04:04.995                             : :Part A
00:09:23.063                             : :Part B
00:22:02.406                             : :ED
00:23:34.998                             : :Preview

Other Files in this Torrent
Angels of Death - 12 - Try to know everything about Her [MCR] [60085434].mkv
beta
Anime DDL+NZB mirror
Current Time: 02/04/2020 00:47



About/FAQs