File Size380.9 MB (399,417,098 bytes)
DownloadClickNUpload | Go4Up | Jheberg | MultiUp | OpenLoad | SolidFiles | ZippyShare
Sendspace: Part1, Part2
Encrypted DownloadDirect
Password:
HashesCRC32: B9E3B1B9, MD5: 8F488CEDEC3EEFC97C667514D5C088EC, SHA1: C7976C286C537FA5E27437C058DDEEA1FC5C6C6B, SHA256: 0443717E0B06B50BDA28CD0F592FFB43AEE18EBDD68FFD3F0FA7A6DF20A20770, ED2K: 52B3831C90EA772F3859839E3AC8AD77
Screenshots
screenshotscreenshotscreenshotscreenshotscreenshot
SubtitlesAll Attachments | English(US) [eng, ASS], Arabic [ara, ASS], Francais(France) [fre, ASS], Italiano [ita, ASS], Portugues(Brasil) [por, ASS], Russian [rus, ASS], Espanol (Espana) [spa, ASS], Espanol [spa, ASS]
Additional Info
General
Unique ID                                : 260964495699545504753717231751711091483 (0xC453EF04EDEE01CC5F8C74830782EB1B)
Complete name                            : Angels of Death - 10 - The witch trial shall start.  [MCR] [B9E3B1B9].mkv
Format                                   : Matroska
Format version                           : Version 4 / Version 2
File size                                : 381 MiB
Duration                                 : 23 min 46 s
Overall bit rate                         : 2 240 kb/s
Movie name                               : Angels of Death - 10 - The witch trial shall start.  [MCR]
Encoded date                             : UTC 2018-09-26 01:36:34
Writing application                      : mkvmerge v25.0.0 ('Prog Noir') 64-bit
Writing library                          : libebml v1.3.6 + libmatroska v1.4.9
Cover                                    : Yes
Attachments                              : cover.jpg
Encoded by                               : MCR

Video
ID                                       : 1
Format                                   : HEVC
Format/Info                              : High Efficiency Video Coding
Format profile                           : Main 10@L4@Main
Codec ID                                 : V_MPEGH/ISO/HEVC
Duration                                 : 23 min 40 s
Bit rate                                 : 1 901 kb/s
Width                                    : 1 920 pixels
Height                                   : 1 080 pixels
Display aspect ratio                     : 16:9
Frame rate mode                          : Constant
Frame rate                               : 23.976 (24000/1001) FPS
Color space                              : YUV
Chroma subsampling                       : 4:2:0
Bit depth                                : 10 bits
Bits/(Pixel*Frame)                       : 0.038
Stream size                              : 322 MiB (84%)
Title                                    : [MCR]
Default                                  : Yes
Forced                                   : No

Audio #1
ID                                       : 2
Format                                   : AAC
Format/Info                              : Advanced Audio Codec
Format profile                           : LC
Codec ID                                 : A_AAC
Duration                                 : 23 min 39 s
Bit rate                                 : 216 kb/s
Channel(s)                               : 2 channels
Channel positions                        : Front: L R
Sampling rate                            : 48.0 kHz
Frame rate                               : 46.875 FPS (1024 spf)
Compression mode                         : Lossy
Delay relative to video                  : 20 ms
Stream size                              : 36.5 MiB (10%)
Language                                 : English
Default                                  : Yes
Forced                                   : No

Audio #2
ID                                       : 3
Format                                   : AAC
Format/Info                              : Advanced Audio Codec
Format profile                           : LC
Codec ID                                 : A_AAC
Duration                                 : 23 min 39 s
Bit rate                                 : 129 kb/s
Channel(s)                               : 2 channels
Channel positions                        : Front: L R
Sampling rate                            : 44.1 kHz
Frame rate                               : 43.066 FPS (1024 spf)
Compression mode                         : Lossy
Delay relative to video                  : 22 ms
Stream size                              : 21.8 MiB (6%)
Language                                 : Japanese
Default                                  : No
Forced                                   : No

Text #1
ID                                       : 4
Format                                   : ASS
Codec ID                                 : S_TEXT/ASS
Codec ID/Info                            : Advanced Sub Station Alpha
Duration                                 : 22 min 0 s
Bit rate                                 : 123 b/s
Count of elements                        : 319
Compression mode                         : Lossless
Stream size                              : 19.8 KiB (0%)
Title                                    : English(US)
Language                                 : English
Default                                  : Yes
Forced                                   : No

Text #2
ID                                       : 5
Format                                   : ASS
Codec ID                                 : S_TEXT/ASS
Codec ID/Info                            : Advanced Sub Station Alpha
Duration                                 : 23 min 38 s
Bit rate                                 : 134 b/s
Count of elements                        : 321
Compression mode                         : Lossless
Stream size                              : 23.2 KiB (0%)
Title                                    : Arabic
Language                                 : Arabic
Default                                  : No
Forced                                   : No

Text #3
ID                                       : 6
Format                                   : ASS
Codec ID                                 : S_TEXT/ASS
Codec ID/Info                            : Advanced Sub Station Alpha
Duration                                 : 23 min 38 s
Bit rate                                 : 128 b/s
Count of elements                        : 343
Compression mode                         : Lossless
Stream size                              : 22.2 KiB (0%)
Title                                    : Francais(France)
Language                                 : French
Default                                  : No
Forced                                   : No

Text #4
ID                                       : 7
Format                                   : ASS
Codec ID                                 : S_TEXT/ASS
Codec ID/Info                            : Advanced Sub Station Alpha
Duration                                 : 22 min 0 s
Bit rate                                 : 129 b/s
Count of elements                        : 337
Compression mode                         : Lossless
Stream size                              : 20.9 KiB (0%)
Title                                    : Italiano
Language                                 : Italian
Default                                  : No
Forced                                   : No

Text #5
ID                                       : 8
Format                                   : ASS
Codec ID                                 : S_TEXT/ASS
Codec ID/Info                            : Advanced Sub Station Alpha
Duration                                 : 23 min 38 s
Bit rate                                 : 129 b/s
Count of elements                        : 321
Compression mode                         : Lossless
Stream size                              : 22.4 KiB (0%)
Title                                    : Portugues(Brasil)
Language                                 : Portuguese
Default                                  : No
Forced                                   : No

Text #6
ID                                       : 9
Format                                   : ASS
Codec ID                                 : S_TEXT/ASS
Codec ID/Info                            : Advanced Sub Station Alpha
Duration                                 : 23 min 44 s
Bit rate                                 : 194 b/s
Count of elements                        : 342
Compression mode                         : Lossless
Stream size                              : 33.8 KiB (0%)
Title                                    : Russian
Language                                 : Russian
Default                                  : No
Forced                                   : No

Text #7
ID                                       : 10
Format                                   : ASS
Codec ID                                 : S_TEXT/ASS
Codec ID/Info                            : Advanced Sub Station Alpha
Duration                                 : 23 min 38 s
Bit rate                                 : 116 b/s
Count of elements                        : 319
Compression mode                         : Lossless
Stream size                              : 20.2 KiB (0%)
Title                                    : Espanol (Espana)
Language                                 : Spanish
Default                                  : No
Forced                                   : No

Text #8
ID                                       : 11
Format                                   : ASS
Codec ID                                 : S_TEXT/ASS
Codec ID/Info                            : Advanced Sub Station Alpha
Duration                                 : 23 min 38 s
Bit rate                                 : 116 b/s
Count of elements                        : 320
Compression mode                         : Lossless
Stream size                              : 20.3 KiB (0%)
Title                                    : Espanol
Language                                 : Spanish
Default                                  : No
Forced                                   : No

Menu
00:00:00.000                             : :Prologue
00:01:13.032                             : :OP
00:02:43.038                             : :Part A
00:13:18.007                             : :Part B
00:22:04.492                             : :ED
00:23:34.999                             : :Preview

Other Files in this Torrent
Angels of Death - 10 - The witch trial shall start. [MCR] [B9E3B1B9].mkv
beta
Anime DDL+NZB mirror
Current Time: 02/04/2020 00:01



About/FAQs