File Size366.1 MB (383,925,384 bytes)
DownloadClickNUpload | Go4Up | Jheberg | MultiUp | OpenLoad | SolidFiles | ZippyShare
Sendspace: Part1, Part2
Encrypted DownloadDirect
Password:
HashesCRC32: 8C91BCDC, MD5: 84BABCC40C00F1477789BE2C78DFC078, SHA1: 81D535E6A1D428B8546942A1E3F7D8D8391D2ACC, SHA256: B9E6399DA8D05561D1ADD778EA2EAEF64E9610FF78AD1925E84C7D18ED7D66D5, ED2K: D4C01ABE6EA99592591067157A08B67C
Screenshots
screenshotscreenshotscreenshotscreenshotscreenshot
SubtitlesAll Attachments | eng [ASS], ara [ASS], fre [ASS], ita [ASS], por [ASS], rus [ASS], spa [ASS], spa [ASS]
Additional Info
General
Unique ID                                : 129693112930181263210594184882171454841 (0x6191FC2778F854CDB91DCE8B3C24A579)
Complete name                            : Angels of Death - 01 - Kill me... please.   [MCR] [8C91BCDC].mkv
Format                                   : Matroska
Format version                           : Version 4 / Version 2
File size                                : 366 MiB
Duration                                 : 23 min 40 s
Overall bit rate                         : 2 162 kb/s
Movie name                               : Angels of Death - 01 - Kill me... please.   [MCR]
Encoded date                             : UTC 2018-07-25 01:16:11
Writing application                      : mkvmerge v23.0.0 ('The Bride Said No') 64-bit
Writing library                          : libebml v1.3.6 + libmatroska v1.4.9
Cover                                    : Yes
Attachments                              : cover.jpg / cover.jpg / APJAPANESEFONTK.ttf / BLUE HIGHWAY LINOCUT.ttf / RH-Sans.ttf / RH-Sans-Italic.ttf
Encoded by                               : MCR

Video
ID                                       : 1
Format                                   : HEVC
Format/Info                              : High Efficiency Video Coding
Format profile                           : Main 10@L4@Main
Codec ID                                 : V_MPEGH/ISO/HEVC
Duration                                 : 23 min 40 s
Bit rate                                 : 1 808 kb/s
Width                                    : 1 920 pixels
Height                                   : 1 080 pixels
Display aspect ratio                     : 16:9
Frame rate mode                          : Constant
Frame rate                               : 23.976 (24000/1001) FPS
Color space                              : YUV
Chroma subsampling                       : 4:2:0
Bit depth                                : 10 bits
Bits/(Pixel*Frame)                       : 0.036
Stream size                              : 306 MiB (84%)
Title                                    : [MCR]
Default                                  : Yes
Forced                                   : No

Audio #1
ID                                       : 2
Format                                   : AAC
Format/Info                              : Advanced Audio Codec
Format profile                           : LC
Codec ID                                 : A_AAC
Duration                                 : 23 min 39 s
Bit rate                                 : 200 kb/s
Channel(s)                               : 2 channels
Channel positions                        : Front: L R
Sampling rate                            : 48.0 kHz
Frame rate                               : 46.875 FPS (1024 spf)
Compression mode                         : Lossy
Delay relative to video                  : 20 ms
Stream size                              : 33.8 MiB (9%)
Language                                 : English
Default                                  : Yes
Forced                                   : No

Audio #2
ID                                       : 3
Format                                   : AAC
Format/Info                              : Advanced Audio Codec
Format profile                           : LC
Codec ID                                 : A_AAC
Duration                                 : 23 min 39 s
Bit rate                                 : 116 kb/s
Channel(s)                               : 2 channels
Channel positions                        : Front: L R
Sampling rate                            : 44.1 kHz
Frame rate                               : 43.066 FPS (1024 spf)
Compression mode                         : Lossy
Delay relative to video                  : 22 ms
Stream size                              : 19.7 MiB (5%)
Language                                 : Japanese
Default                                  : No
Forced                                   : No

Text #1
ID                                       : 4
Format                                   : ASS
Codec ID                                 : S_TEXT/ASS
Codec ID/Info                            : Advanced Sub Station Alpha
Duration                                 : 21 min 47 s
Bit rate                                 : 95 b/s
Count of elements                        : 261
Compression mode                         : Lossless
Stream size                              : 15.3 KiB (0%)
Language                                 : English
Default                                  : No
Forced                                   : No

Text #2
ID                                       : 5
Format                                   : ASS
Codec ID                                 : S_TEXT/ASS
Codec ID/Info                            : Advanced Sub Station Alpha
Duration                                 : 21 min 47 s
Bit rate                                 : 109 b/s
Count of elements                        : 261
Compression mode                         : Lossless
Stream size                              : 17.5 KiB (0%)
Language                                 : Arabic
Default                                  : No
Forced                                   : No

Text #3
ID                                       : 6
Format                                   : ASS
Codec ID                                 : S_TEXT/ASS
Codec ID/Info                            : Advanced Sub Station Alpha
Duration                                 : 21 min 47 s
Bit rate                                 : 105 b/s
Count of elements                        : 273
Compression mode                         : Lossless
Stream size                              : 16.9 KiB (0%)
Language                                 : French
Default                                  : No
Forced                                   : No

Text #4
ID                                       : 7
Format                                   : ASS
Codec ID                                 : S_TEXT/ASS
Codec ID/Info                            : Advanced Sub Station Alpha
Duration                                 : 21 min 47 s
Bit rate                                 : 110 b/s
Count of elements                        : 310
Compression mode                         : Lossless
Stream size                              : 17.6 KiB (0%)
Language                                 : Italian
Default                                  : No
Forced                                   : No

Text #5
ID                                       : 8
Format                                   : ASS
Codec ID                                 : S_TEXT/ASS
Codec ID/Info                            : Advanced Sub Station Alpha
Duration                                 : 23 min 23 s
Bit rate                                 : 102 b/s
Count of elements                        : 265
Compression mode                         : Lossless
Stream size                              : 17.5 KiB (0%)
Language                                 : Portuguese
Default                                  : No
Forced                                   : No

Text #6
ID                                       : 9
Format                                   : ASS
Codec ID                                 : S_TEXT/ASS
Codec ID/Info                            : Advanced Sub Station Alpha
Duration                                 : 23 min 24 s
Bit rate                                 : 168 b/s
Count of elements                        : 340
Compression mode                         : Lossless
Stream size                              : 29.0 KiB (0%)
Language                                 : Russian
Default                                  : No
Forced                                   : No

Text #7
ID                                       : 10
Format                                   : ASS
Codec ID                                 : S_TEXT/ASS
Codec ID/Info                            : Advanced Sub Station Alpha
Duration                                 : 23 min 24 s
Bit rate                                 : 92 b/s
Count of elements                        : 262
Compression mode                         : Lossless
Stream size                              : 15.9 KiB (0%)
Language                                 : Spanish
Default                                  : No
Forced                                   : No

Text #8
ID                                       : 11
Format                                   : ASS
Codec ID                                 : S_TEXT/ASS
Codec ID/Info                            : Advanced Sub Station Alpha
Duration                                 : 21 min 47 s
Bit rate                                 : 99 b/s
Count of elements                        : 261
Compression mode                         : Lossless
Stream size                              : 15.9 KiB (0%)
Language                                 : Spanish
Default                                  : No
Forced                                   : No

Menu
00:00:00.000                             : en:Prologue
00:03:52.024                             : en:Part A
00:11:10.004                             : en:Part B
00:22:04.867                             : en:ED
00:23:34.999                             : en:Preview

Other Files in this Torrent
Angels of Death - 01 - Kill me... please. [MCR] [8C91BCDC].mkv
beta
Anime DDL+NZB mirror
Current Time: 02/04/2020 00:39



About/FAQs