File Size368.8 MB (386,714,058 bytes)
DownloadClickNUpload | Go4Up
  • DownAce
  • FileFactory
  • KatFile
  • Oboom
  • OwnDrives
  • Share-Online
  • TusFiles
  • UploadGig
  • Uppit
  • UsersCloud
| Jheberg | MultiUp | OpenLoad | SolidFiles | ZippyShare
Sendspace: Part1, Part2
Encrypted DownloadDirect
Password:
HashesCRC32: 0A0C61EA, MD5: 99858CBD6675700E0B4D68C84A9E0BBF, SHA1: 2A99731153F644A57ADF7CF1106BCADEF8A0196E, SHA256: 4588BD466808306ABE9C126AB6542C42B25727418A16A180DD0A39651C3F1B03, ED2K: 157FAC410C8F294E8DFA2308B3D6D141
Screenshots
screenshotscreenshotscreenshotscreenshotscreenshot
SubtitlesAll Attachments | eng [ASS], ara [ASS], fre [ASS], ita [ASS], por [ASS], rus [ASS], spa [ASS], spa [ASS]
Additional Info
General
Unique ID                                : 200947610524076196391583564440011488294 (0x972D1A1F0A549424B1DB9A8876AB3C26)
Complete name                            : Angels of Death - 05 - Don't let me kill you just yet.  [MCR] [0A0C61EA].mkv
Format                                   : Matroska
Format version                           : Version 4 / Version 2
File size                                : 369 MiB
Duration                                 : 23 min 43 s
Overall bit rate                         : 2 174 kb/s
Movie name                               : Angels of Death - 05 - Don't let me kill you just yet.  [MCR]
Encoded date                             : UTC 2018-08-21 23:34:57
Writing application                      : mkvmerge v15.0.0 ('Duel with the Devil') 64-bit
Writing library                          : libebml v1.3.5 + libmatroska v1.4.5
Cover                                    : Yes
Attachments                              : cover.jpg / BLUE HIGHWAY LINOCUT.ttf / Bohemia.ttf / RH-Sans.ttf / RH-Sans-Italic.ttf
Encoded by                               : MCR

Video
ID                                       : 1
Format                                   : HEVC
Format/Info                              : High Efficiency Video Coding
Format profile                           : Main 10@L4@Main
Codec ID                                 : V_MPEGH/ISO/HEVC
Duration                                 : 23 min 40 s
Bit rate                                 : 1 835 kb/s
Width                                    : 1 920 pixels
Height                                   : 1 080 pixels
Display aspect ratio                     : 16:9
Frame rate mode                          : Constant
Frame rate                               : 23.976 (24000/1001) FPS
Color space                              : YUV
Chroma subsampling                       : 4:2:0
Bit depth                                : 10 bits
Bits/(Pixel*Frame)                       : 0.037
Stream size                              : 311 MiB (84%)
Title                                    : [MCR]
Default                                  : Yes
Forced                                   : No

Audio #1
ID                                       : 2
Format                                   : AAC
Format/Info                              : Advanced Audio Codec
Format profile                           : LC
Codec ID                                 : A_AAC
Duration                                 : 23 min 39 s
Bit rate                                 : 210 kb/s
Channel(s)                               : 2 channels
Channel positions                        : Front: L R
Sampling rate                            : 48.0 kHz
Frame rate                               : 46.875 FPS (1024 spf)
Compression mode                         : Lossy
Delay relative to video                  : 20 ms
Stream size                              : 35.5 MiB (10%)
Language                                 : English
Default                                  : Yes
Forced                                   : No

Audio #2
ID                                       : 3
Format                                   : AAC
Format/Info                              : Advanced Audio Codec
Format profile                           : LC
Codec ID                                 : A_AAC
Duration                                 : 23 min 40 s
Bit rate                                 : 125 kb/s
Channel(s)                               : 2 channels
Channel positions                        : Front: L R
Sampling rate                            : 44.1 kHz
Frame rate                               : 43.066 FPS (1024 spf)
Compression mode                         : Lossy
Delay relative to video                  : 22 ms
Stream size                              : 21.2 MiB (6%)
Language                                 : Japanese
Default                                  : No
Forced                                   : No

Text #1
ID                                       : 4
Format                                   : ASS
Codec ID                                 : S_TEXT/ASS
Codec ID/Info                            : Advanced Sub Station Alpha
Duration                                 : 21 min 54 s
Bit rate                                 : 116 b/s
Count of elements                        : 311
Compression mode                         : Lossless
Stream size                              : 18.7 KiB (0%)
Language                                 : English
Default                                  : No
Forced                                   : No

Text #2
ID                                       : 5
Format                                   : ASS
Codec ID                                 : S_TEXT/ASS
Codec ID/Info                            : Advanced Sub Station Alpha
Duration                                 : 21 min 54 s
Bit rate                                 : 135 b/s
Count of elements                        : 312
Compression mode                         : Lossless
Stream size                              : 21.7 KiB (0%)
Language                                 : Arabic
Default                                  : No
Forced                                   : No

Text #3
ID                                       : 6
Format                                   : ASS
Codec ID                                 : S_TEXT/ASS
Codec ID/Info                            : Advanced Sub Station Alpha
Duration                                 : 23 min 33 s
Bit rate                                 : 109 b/s
Count of elements                        : 286
Compression mode                         : Lossless
Stream size                              : 18.9 KiB (0%)
Language                                 : French
Default                                  : No
Forced                                   : No

Text #4
ID                                       : 7
Format                                   : ASS
Codec ID                                 : S_TEXT/ASS
Codec ID/Info                            : Advanced Sub Station Alpha
Duration                                 : 21 min 54 s
Bit rate                                 : 117 b/s
Count of elements                        : 303
Compression mode                         : Lossless
Stream size                              : 18.9 KiB (0%)
Language                                 : Italian
Default                                  : No
Forced                                   : No

Text #5
ID                                       : 8
Format                                   : ASS
Codec ID                                 : S_TEXT/ASS
Codec ID/Info                            : Advanced Sub Station Alpha
Duration                                 : 23 min 33 s
Bit rate                                 : 123 b/s
Count of elements                        : 310
Compression mode                         : Lossless
Stream size                              : 21.3 KiB (0%)
Language                                 : Portuguese
Default                                  : No
Forced                                   : No

Text #6
ID                                       : 9
Format                                   : ASS
Codec ID                                 : S_TEXT/ASS
Codec ID/Info                            : Advanced Sub Station Alpha
Duration                                 : 23 min 36 s
Bit rate                                 : 173 b/s
Count of elements                        : 333
Compression mode                         : Lossless
Stream size                              : 30.0 KiB (0%)
Language                                 : Russian
Default                                  : No
Forced                                   : No

Text #7
ID                                       : 10
Format                                   : ASS
Codec ID                                 : S_TEXT/ASS
Codec ID/Info                            : Advanced Sub Station Alpha
Duration                                 : 23 min 34 s
Bit rate                                 : 104 b/s
Count of elements                        : 291
Compression mode                         : Lossless
Stream size                              : 18.1 KiB (0%)
Language                                 : Spanish
Default                                  : No
Forced                                   : No

Text #8
ID                                       : 11
Format                                   : ASS
Codec ID                                 : S_TEXT/ASS
Codec ID/Info                            : Advanced Sub Station Alpha
Duration                                 : 23 min 34 s
Bit rate                                 : 105 b/s
Count of elements                        : 291
Compression mode                         : Lossless
Stream size                              : 18.1 KiB (0%)
Language                                 : Spanish
Default                                  : No
Forced                                   : No

Menu
00:00:00.000                             : en:Prologue
00:01:15.034                             : en:OP
00:02:45.040                             : en:Part A
00:10:31.048                             : en:Part B
00:22:04.492                             : en:ED
00:23:34.999                             : en:Preview

Other Files in this Torrent
Angels of Death - 05 - Don't let me kill you just yet. [MCR] [0A0C61EA].mkv
beta
Anime DDL+NZB mirror
Current Time: 01/04/2020 23:06



About/FAQs