File Size365.1 MB (382,870,554 bytes)
DownloadClickNUpload | Go4Up | Jheberg | MultiUp | OpenLoad | SolidFiles | ZippyShare
Sendspace: Part1, Part2
Encrypted DownloadDirect
Password:
HashesCRC32: AC03846C, MD5: 46D5A487B61CCE2DEE765BE86013A05A, SHA1: 7A1D04444011D6BD9C27B82038D9121E814A4452, SHA256: BB34012BA98FCEE206F759F65A6AE332871A2279FE14CE6E1B48C890AD15122F, ED2K: 8CC18DF9DFB7F467AA9D9107498A3F87
Screenshots
screenshotscreenshotscreenshotscreenshotscreenshot
SubtitlesAll Attachments | eng [ASS], ara [ASS], fre [ASS], ita [ASS], por [ASS], rus [ASS], spa [ASS], spa [ASS]
Additional Info
General
Unique ID                                : 225997760078537958210832357199993434292 (0xAA0595D97EE1364D868EE5C273A0F0B4)
Complete name                            : Angels of Death - 07 - Who are you  [MCR] [AC03846C].mkv
Format                                   : Matroska
Format version                           : Version 4 / Version 2
File size                                : 365 MiB
Duration                                 : 23 min 41 s
Overall bit rate                         : 2 155 kb/s
Movie name                               : Angels of Death - 07 - Who are you?  [MCR]
Encoded date                             : UTC 2018-09-05 16:50:23
Writing application                      : mkvmerge v15.0.0 ('Duel with the Devil') 64-bit
Writing library                          : libebml v1.3.5 + libmatroska v1.4.5
Cover                                    : Yes
Attachments                              : cover.jpg / BLUE HIGHWAY LINOCUT.ttf / Bohemia.ttf / RH-Sans.ttf / RH-Sans-Italic.ttf
Encoded by                               : MCR

Video
ID                                       : 1
Format                                   : HEVC
Format/Info                              : High Efficiency Video Coding
Format profile                           : Main 10@L4@Main
Codec ID                                 : V_MPEGH/ISO/HEVC
Duration                                 : 23 min 39 s
Bit rate                                 : 1 803 kb/s
Width                                    : 1 920 pixels
Height                                   : 1 080 pixels
Display aspect ratio                     : 16:9
Frame rate mode                          : Constant
Frame rate                               : 23.976 (24000/1001) FPS
Color space                              : YUV
Chroma subsampling                       : 4:2:0
Bit depth                                : 10 bits
Bits/(Pixel*Frame)                       : 0.036
Stream size                              : 305 MiB (84%)
Title                                    : [MCR]
Default                                  : Yes
Forced                                   : No

Audio #1
ID                                       : 2
Format                                   : AAC
Format/Info                              : Advanced Audio Codec
Format profile                           : LC
Codec ID                                 : A_AAC
Duration                                 : 23 min 39 s
Bit rate                                 : 215 kb/s
Channel(s)                               : 2 channels
Channel positions                        : Front: L R
Sampling rate                            : 48.0 kHz
Frame rate                               : 46.875 FPS (1024 spf)
Compression mode                         : Lossy
Delay relative to video                  : 20 ms
Stream size                              : 36.4 MiB (10%)
Language                                 : English
Default                                  : Yes
Forced                                   : No

Audio #2
ID                                       : 3
Format                                   : AAC
Format/Info                              : Advanced Audio Codec
Format profile                           : LC
Codec ID                                 : A_AAC
Duration                                 : 23 min 39 s
Bit rate                                 : 132 kb/s
Channel(s)                               : 2 channels
Channel positions                        : Front: L R
Sampling rate                            : 44.1 kHz
Frame rate                               : 43.066 FPS (1024 spf)
Compression mode                         : Lossy
Delay relative to video                  : 22 ms
Stream size                              : 22.2 MiB (6%)
Language                                 : Japanese
Default                                  : No
Forced                                   : No

Text #1
ID                                       : 4
Format                                   : ASS
Codec ID                                 : S_TEXT/ASS
Codec ID/Info                            : Advanced Sub Station Alpha
Duration                                 : 21 min 57 s
Bit rate                                 : 98 b/s
Count of elements                        : 264
Compression mode                         : Lossless
Stream size                              : 15.9 KiB (0%)
Language                                 : English
Default                                  : No
Forced                                   : No

Text #2
ID                                       : 5
Format                                   : ASS
Codec ID                                 : S_TEXT/ASS
Codec ID/Info                            : Advanced Sub Station Alpha
Duration                                 : 23 min 39 s
Bit rate                                 : 103 b/s
Count of elements                        : 266
Compression mode                         : Lossless
Stream size                              : 18.0 KiB (0%)
Language                                 : Arabic
Default                                  : No
Forced                                   : No

Text #3
ID                                       : 6
Format                                   : ASS
Codec ID                                 : S_TEXT/ASS
Codec ID/Info                            : Advanced Sub Station Alpha
Duration                                 : 23 min 39 s
Bit rate                                 : 99 b/s
Count of elements                        : 269
Compression mode                         : Lossless
Stream size                              : 17.3 KiB (0%)
Language                                 : French
Default                                  : No
Forced                                   : No

Text #4
ID                                       : 7
Format                                   : ASS
Codec ID                                 : S_TEXT/ASS
Codec ID/Info                            : Advanced Sub Station Alpha
Duration                                 : 21 min 57 s
Bit rate                                 : 108 b/s
Count of elements                        : 289
Compression mode                         : Lossless
Stream size                              : 17.4 KiB (0%)
Language                                 : Italian
Default                                  : No
Forced                                   : No

Text #5
ID                                       : 8
Format                                   : ASS
Codec ID                                 : S_TEXT/ASS
Codec ID/Info                            : Advanced Sub Station Alpha
Duration                                 : 23 min 40 s
Bit rate                                 : 102 b/s
Count of elements                        : 265
Compression mode                         : Lossless
Stream size                              : 17.7 KiB (0%)
Language                                 : Portuguese
Default                                  : No
Forced                                   : No

Text #6
ID                                       : 9
Format                                   : ASS
Codec ID                                 : S_TEXT/ASS
Codec ID/Info                            : Advanced Sub Station Alpha
Duration                                 : 23 min 40 s
Bit rate                                 : 158 b/s
Count of elements                        : 307
Compression mode                         : Lossless
Stream size                              : 27.5 KiB (0%)
Language                                 : Russian
Default                                  : No
Forced                                   : No

Text #7
ID                                       : 10
Format                                   : ASS
Codec ID                                 : S_TEXT/ASS
Codec ID/Info                            : Advanced Sub Station Alpha
Duration                                 : 23 min 39 s
Bit rate                                 : 92 b/s
Count of elements                        : 260
Compression mode                         : Lossless
Stream size                              : 16.0 KiB (0%)
Language                                 : Spanish
Default                                  : No
Forced                                   : No

Text #8
ID                                       : 11
Format                                   : ASS
Codec ID                                 : S_TEXT/ASS
Codec ID/Info                            : Advanced Sub Station Alpha
Duration                                 : 23 min 39 s
Bit rate                                 : 92 b/s
Count of elements                        : 260
Compression mode                         : Lossless
Stream size                              : 16.0 KiB (0%)
Language                                 : Spanish
Default                                  : No
Forced                                   : No

Menu
00:00:00.000                             : en:Prologue
00:02:10.379                             : en:OP
00:03:40.257                             : en:Part A
00:11:59.400                             : en:Part B
00:22:05.085                             : en:ED

Other Files in this Torrent
Angels of Death - 07 - Who are you [MCR] [AC03846C].mkv
beta
Anime DDL+NZB mirror
Current Time: 01/04/2020 22:45



About/FAQs