File Size476.4 MB (499,567,706 bytes)
DownloadClickNUpload | Go4Up | Jheberg | MultiUp | OpenLoad | SolidFiles | ZippyShare
Sendspace: Part1, Part2
Encrypted DownloadDirect
Password:
HashesCRC32: A56CFD4D, MD5: A315779A85956CA63C19BB5AA55C00A3, SHA1: C88EE387C0FC08A62C0DBC7CFF19031232B62092, SHA256: D8B3D677ABF18209AE9C6400C9499394E3AFBC70FDF87A03CA82D53055884B72, ED2K: 869BF9AFFB29A33A203FB4339A13F160
Screenshots
screenshotscreenshotscreenshotscreenshotscreenshot
SubtitlesAll Attachments | eng [ASS], ara [ASS], fre [ASS], ita [ASS], por [ASS], rus [ASS], spa [ASS], spa [ASS]
Additional Info
General
Unique ID                                : 213549716626326295101714205469057458951 (0xA0A82DEC47D21037A7C83D72FAA3A307)
Complete name                            : Angels of Death - 06 - Zack is the only one who can kill me.  [MCR] [A56CFD4D].mkv
Format                                   : Matroska
Format version                           : Version 4 / Version 2
File size                                : 476 MiB
Duration                                 : 23 min 41 s
Overall bit rate                         : 2 811 kb/s
Movie name                               : Angels of Death - 06 - Zack is the only one who can kill me.  [MCR]
Encoded date                             : UTC 2018-08-29 00:36:45
Writing application                      : mkvmerge v15.0.0 ('Duel with the Devil') 64-bit
Writing library                          : libebml v1.3.5 + libmatroska v1.4.5
Cover                                    : Yes
Attachments                              : cover.jpg / BLUE HIGHWAY LINOCUT.ttf / Bohemia.ttf / RH-Sans.ttf / RH-Sans-Italic.ttf
Encoded by                               : MCR

Video
ID                                       : 1
Format                                   : HEVC
Format/Info                              : High Efficiency Video Coding
Format profile                           : Main 10@L4@Main
Codec ID                                 : V_MPEGH/ISO/HEVC
Duration                                 : 23 min 40 s
Bit rate                                 : 2 469 kb/s
Width                                    : 1 920 pixels
Height                                   : 1 080 pixels
Display aspect ratio                     : 16:9
Frame rate mode                          : Constant
Frame rate                               : 23.976 (24000/1001) FPS
Color space                              : YUV
Chroma subsampling                       : 4:2:0
Bit depth                                : 10 bits
Bits/(Pixel*Frame)                       : 0.050
Stream size                              : 418 MiB (88%)
Title                                    : [MCR]
Default                                  : Yes
Forced                                   : No

Audio #1
ID                                       : 2
Format                                   : AAC
Format/Info                              : Advanced Audio Codec
Format profile                           : LC
Codec ID                                 : A_AAC
Duration                                 : 23 min 40 s
Bit rate                                 : 212 kb/s
Channel(s)                               : 2 channels
Channel positions                        : Front: L R
Sampling rate                            : 48.0 kHz
Frame rate                               : 46.875 FPS (1024 spf)
Compression mode                         : Lossy
Delay relative to video                  : 20 ms
Stream size                              : 35.8 MiB (8%)
Language                                 : English
Default                                  : Yes
Forced                                   : No

Audio #2
ID                                       : 3
Format                                   : AAC
Format/Info                              : Advanced Audio Codec
Format profile                           : LC
Codec ID                                 : A_AAC
Duration                                 : 23 min 40 s
Bit rate                                 : 126 kb/s
Channel(s)                               : 2 channels
Channel positions                        : Front: L R
Sampling rate                            : 44.1 kHz
Frame rate                               : 43.066 FPS (1024 spf)
Compression mode                         : Lossy
Delay relative to video                  : 22 ms
Stream size                              : 21.3 MiB (4%)
Language                                 : Japanese
Default                                  : No
Forced                                   : No

Text #1
ID                                       : 4
Format                                   : ASS
Codec ID                                 : S_TEXT/ASS
Codec ID/Info                            : Advanced Sub Station Alpha
Duration                                 : 23 min 33 s
Bit rate                                 : 91 b/s
Count of elements                        : 262
Compression mode                         : Lossless
Stream size                              : 15.9 KiB (0%)
Language                                 : English
Default                                  : No
Forced                                   : No

Text #2
ID                                       : 5
Format                                   : ASS
Codec ID                                 : S_TEXT/ASS
Codec ID/Info                            : Advanced Sub Station Alpha
Duration                                 : 23 min 39 s
Bit rate                                 : 104 b/s
Count of elements                        : 263
Compression mode                         : Lossless
Stream size                              : 18.1 KiB (0%)
Language                                 : Arabic
Default                                  : No
Forced                                   : No

Text #3
ID                                       : 6
Format                                   : ASS
Codec ID                                 : S_TEXT/ASS
Codec ID/Info                            : Advanced Sub Station Alpha
Duration                                 : 23 min 39 s
Bit rate                                 : 91 b/s
Count of elements                        : 241
Compression mode                         : Lossless
Stream size                              : 15.9 KiB (0%)
Language                                 : French
Default                                  : No
Forced                                   : No

Text #4
ID                                       : 7
Format                                   : ASS
Codec ID                                 : S_TEXT/ASS
Codec ID/Info                            : Advanced Sub Station Alpha
Duration                                 : 23 min 33 s
Bit rate                                 : 95 b/s
Count of elements                        : 269
Compression mode                         : Lossless
Stream size                              : 16.4 KiB (0%)
Language                                 : Italian
Default                                  : No
Forced                                   : No

Text #5
ID                                       : 8
Format                                   : ASS
Codec ID                                 : S_TEXT/ASS
Codec ID/Info                            : Advanced Sub Station Alpha
Duration                                 : 23 min 40 s
Bit rate                                 : 106 b/s
Count of elements                        : 265
Compression mode                         : Lossless
Stream size                              : 18.5 KiB (0%)
Language                                 : Portuguese
Default                                  : No
Forced                                   : No

Text #6
ID                                       : 9
Format                                   : ASS
Codec ID                                 : S_TEXT/ASS
Codec ID/Info                            : Advanced Sub Station Alpha
Duration                                 : 23 min 41 s
Bit rate                                 : 149 b/s
Count of elements                        : 285
Compression mode                         : Lossless
Stream size                              : 26.0 KiB (0%)
Language                                 : Russian
Default                                  : No
Forced                                   : No

Text #7
ID                                       : 10
Format                                   : ASS
Codec ID                                 : S_TEXT/ASS
Codec ID/Info                            : Advanced Sub Station Alpha
Duration                                 : 23 min 39 s
Bit rate                                 : 91 b/s
Count of elements                        : 257
Compression mode                         : Lossless
Stream size                              : 15.8 KiB (0%)
Language                                 : Spanish
Default                                  : No
Forced                                   : No

Text #8
ID                                       : 11
Format                                   : ASS
Codec ID                                 : S_TEXT/ASS
Codec ID/Info                            : Advanced Sub Station Alpha
Duration                                 : 23 min 39 s
Bit rate                                 : 91 b/s
Count of elements                        : 257
Compression mode                         : Lossless
Stream size                              : 15.8 KiB (0%)
Language                                 : Spanish
Default                                  : No
Forced                                   : No

Menu
00:00:00.000                             : en:Prologue
00:03:46.018                             : en:OP
00:05:15.983                             : en:Part A
00:11:41.076                             : en:Part B
00:20:02.036                             : en:ED
00:21:32.543                             : en:Epilogue
00:23:35.040                             : en:Preview

Other Files in this Torrent
Angels of Death - 06 - Zack is the only one who can kill me. [MCR] [A56CFD4D].mkv
beta
Anime DDL+NZB mirror
Current Time: 02/04/2020 00:42



About/FAQs