File Size361.3 MB (378,872,572 bytes)
DownloadAnonFiles | ClickNUpload | DownloadGG | KrakenFiles | MultiUp
  • BdUpload
  • DownAce
  • Fichier
  • FileCloud
  • Filerio
  • FilesCdn
  • IndiShare
  • Kbagi
  • Turbobit
  • UpToBox
  • Uppit
| ZippyShare
HashesCRC32: 5DDC4D7B, MD5: 62ED6FD1E8148A2DDEC5BDB1604F8C43, SHA1: 0C7452CD7F7D4F24B364405879E2FED8164A489E, SHA256: A159D766B84EECE04D9322EF8471D0EB3DE65FF49454F6E5FB5164EC872B33D0, ED2K: E25C6A20BE0B16B72682FAE9D8479011
Screenshots
screenshotscreenshotscreenshotscreenshotscreenshot
Additional Info
General
Complete name                            : 890.mp4
Format                                   : MPEG-4
Format profile                           : Base Media
Codec ID                                 : isom (isom/iso2/avc1/mp41)
File size                                : 361 MiB
Duration                                 : 23 min 36 s
Overall bit rate mode                    : Variable
Overall bit rate                         : 2 140 kb/s
Writing application                      : Lavf59.17.101

Video
ID                                       : 1
Format                                   : AVC
Format/Info                              : Advanced Video Codec
Format profile                           : Main@L3.1
Format settings                          : CABAC / 4 Ref Frames
Format settings, CABAC                   : Yes
Format settings, Reference frames        : 4 frames
Codec ID                                 : avc1
Codec ID/Info                            : Advanced Video Coding
Duration                                 : 23 min 36 s
Bit rate mode                            : Variable
Bit rate                                 : 2 036 kb/s
Maximum bit rate                         : 6 000 kb/s
Width                                    : 1 280 pixels
Height                                   : 720 pixels
Display aspect ratio                     : 16:9
Frame rate mode                          : Constant
Frame rate                               : 23.976 (23976/1000) FPS
Original frame rate                      : 23.976 (24000/1001) FPS
Color space                              : YUV
Chroma subsampling                       : 4:2:0
Bit depth                                : 8 bits
Scan type                                : Progressive
Bits/(Pixel*Frame)                       : 0.092
Stream size                              : 344 MiB (95%)
Codec configuration box                  : avcC

Audio
ID                                       : 2
Format                                   : AAC LC
Format/Info                              : Advanced Audio Codec Low Complexity
Codec ID                                 : mp4a-40-2
Duration                                 : 23 min 36 s
Bit rate mode                            : Constant
Bit rate                                 : 99.7 kb/s
Channel(s)                               : 2 channels
Channel layout                           : L R
Sampling rate                            : 48.0 kHz
Frame rate                               : 46.875 FPS (1024 SPF)
Compression mode                         : Lossy
Stream size                              : 16.8 MiB (5%)
Default                                  : Yes
Alternate group                          : 1

Other Files in this Torrent
890.mp4
beta
Anime DDL+NZB mirror
Current Time: 19/07/2024 07:47



About/FAQs

Discord