File Size370.5 MB (388,503,086 bytes)
DownloadAnonFiles | ClickNUpload | DownloadGG | KrakenFiles | MultiUp
  • BdUpload
  • DownAce
  • Fichier
  • FileCloud
  • Filerio
  • FilesCdn
  • IndiShare
  • Kbagi
  • Turbobit
  • UpToBox
  • Uppit
| ZippyShare
HashesCRC32: 25D65761, MD5: 09BF195BF79C9A89D35987EF29B6815F, SHA1: 9CF58AAC59E74E334048C4712B40C8409B0F36E3, SHA256: C1C302A7F83C68BE1615D3B70D59704BC0678B776DAD0A8685029E31661516F5, ED2K: 1C67C50BEC2B8CCE8C7A1985416DE33F
Screenshots
screenshotscreenshotscreenshotscreenshotscreenshot
Additional Info
General
Complete name                            : 884.mp4
Format                                   : MPEG-4
Format profile                           : Base Media
Codec ID                                 : isom (isom/iso2/avc1/mp41)
File size                                : 371 MiB
Duration                                 : 23 min 35 s
Overall bit rate mode                    : Variable
Overall bit rate                         : 2 196 kb/s
Writing application                      : Lavf59.17.101

Video
ID                                       : 1
Format                                   : AVC
Format/Info                              : Advanced Video Codec
Format profile                           : Main@L3.1
Format settings                          : CABAC / 4 Ref Frames
Format settings, CABAC                   : Yes
Format settings, Reference frames        : 4 frames
Codec ID                                 : avc1
Codec ID/Info                            : Advanced Video Coding
Duration                                 : 23 min 35 s
Bit rate mode                            : Variable
Bit rate                                 : 1 996 kb/s
Maximum bit rate                         : 6 000 kb/s
Width                                    : 1 280 pixels
Height                                   : 720 pixels
Display aspect ratio                     : 16:9
Frame rate mode                          : Constant
Frame rate                               : 23.976 (24000/1001) FPS
Color space                              : YUV
Chroma subsampling                       : 4:2:0
Bit depth                                : 8 bits
Scan type                                : Progressive
Bits/(Pixel*Frame)                       : 0.090
Stream size                              : 337 MiB (91%)
Codec configuration box                  : avcC

Audio
ID                                       : 2
Format                                   : AAC LC
Format/Info                              : Advanced Audio Codec Low Complexity
Codec ID                                 : mp4a-40-2
Duration                                 : 23 min 35 s
Bit rate mode                            : Constant
Bit rate                                 : 192 kb/s
Channel(s)                               : 2 channels
Channel layout                           : L R
Sampling rate                            : 48.0 kHz
Frame rate                               : 46.875 FPS (1024 SPF)
Compression mode                         : Lossy
Stream size                              : 33.0 MiB (9%)
Default                                  : Yes
Alternate group                          : 1

Other Files in this Torrent
884.mp4
beta
Anime DDL+NZB mirror
Current Time: 19/07/2024 08:17



About/FAQs

Discord