File Size358.9 MB (376,349,617 bytes)
DownloadAnonFiles | ClickNUpload | DownloadGG | KrakenFiles | MultiUp
  • BdUpload
  • DownAce
  • Fichier
  • FileCloud
  • Filerio
  • FilesCdn
  • IndiShare
  • Kbagi
  • Turbobit
  • UpToBox
  • Uppit
| ZippyShare
HashesCRC32: B0DC76CA, MD5: C2AA9794D7914646294C30E58C50ED6E, SHA1: 974423C8E3C410F16B4DF47ED9C087D36893DD9E, SHA256: 2563FB44B8954DD2D0285F4C6DCE6D874DEE7A8356B5E855264C6C5457543D2D, ED2K: 913663DDD18219A826E349EB7B1F3254
Screenshots
screenshotscreenshotscreenshotscreenshotscreenshot
Additional Info
General
Complete name                            : 879.mp4
Format                                   : MPEG-4
Format profile                           : Base Media
Codec ID                                 : isom (isom/iso2/avc1/mp41)
File size                                : 359 MiB
Duration                                 : 23 min 34 s
Overall bit rate mode                    : Variable
Overall bit rate                         : 2 129 kb/s
Writing application                      : Lavf59.17.101

Video
ID                                       : 1
Format                                   : AVC
Format/Info                              : Advanced Video Codec
Format profile                           : Main@L3.1
Format settings                          : CABAC / 4 Ref Frames
Format settings, CABAC                   : Yes
Format settings, Reference frames        : 4 frames
Codec ID                                 : avc1
Codec ID/Info                            : Advanced Video Coding
Duration                                 : 23 min 34 s
Bit rate mode                            : Variable
Bit rate                                 : 2 024 kb/s
Maximum bit rate                         : 6 000 kb/s
Width                                    : 1 280 pixels
Height                                   : 720 pixels
Display aspect ratio                     : 16:9
Frame rate mode                          : Constant
Frame rate                               : 23.976 (23976/1000) FPS
Original frame rate                      : 23.976 (24000/1001) FPS
Color space                              : YUV
Chroma subsampling                       : 4:2:0
Bit depth                                : 8 bits
Scan type                                : Progressive
Bits/(Pixel*Frame)                       : 0.092
Stream size                              : 341 MiB (95%)
Codec configuration box                  : avcC

Audio
ID                                       : 2
Format                                   : AAC LC
Format/Info                              : Advanced Audio Codec Low Complexity
Codec ID                                 : mp4a-40-2
Duration                                 : 23 min 34 s
Bit rate mode                            : Constant
Bit rate                                 : 99.4 kb/s
Channel(s)                               : 2 channels
Channel layout                           : L R
Sampling rate                            : 48.0 kHz
Frame rate                               : 46.875 FPS (1024 SPF)
Compression mode                         : Lossy
Stream size                              : 16.8 MiB (5%)
Default                                  : Yes
Alternate group                          : 1

Other Files in this Torrent
879.mp4
beta
Anime DDL+NZB mirror
Current Time: 19/07/2024 09:20



About/FAQs

Discord