File Size351.7 MB (368,736,864 bytes)
DownloadAnonFiles | ClickNUpload | DownloadGG | KrakenFiles | MultiUp
  • BdUpload
  • DownAce
  • Fichier
  • FileCloud
  • Filerio
  • FilesCdn
  • IndiShare
  • Kbagi
  • Turbobit
  • UpToBox
  • Uppit
| ZippyShare
HashesCRC32: 62CF541B, MD5: F848EA588CE058F0E75421BE5A4E6E43, SHA1: 4C9EFC125BD9F827474FDFD3F82F338374672B41, SHA256: BC26AD23EA1D57DC46C2916978CBDD7C2D389F8E0F442743DD1150C7F6F53834, ED2K: 2449745A1DACBCFA16326EC782DC1C99
Screenshots
screenshotscreenshotscreenshotscreenshotscreenshot
Additional Info
General
Complete name                            : 887.mp4
Format                                   : MPEG-4
Format profile                           : Base Media
Codec ID                                 : isom (isom/iso2/avc1/mp41)
File size                                : 352 MiB
Duration                                 : 23 min 34 s
Overall bit rate mode                    : Variable
Overall bit rate                         : 2 085 kb/s
Writing application                      : Lavf59.17.101

Video
ID                                       : 1
Format                                   : AVC
Format/Info                              : Advanced Video Codec
Format profile                           : Main@L3.1
Format settings                          : CABAC / 4 Ref Frames
Format settings, CABAC                   : Yes
Format settings, Reference frames        : 4 frames
Codec ID                                 : avc1
Codec ID/Info                            : Advanced Video Coding
Duration                                 : 23 min 34 s
Bit rate mode                            : Variable
Bit rate                                 : 1 980 kb/s
Maximum bit rate                         : 6 000 kb/s
Width                                    : 1 280 pixels
Height                                   : 720 pixels
Display aspect ratio                     : 16:9
Frame rate mode                          : Constant
Frame rate                               : 23.976 (23976/1000) FPS
Original frame rate                      : 23.976 (24000/1001) FPS
Color space                              : YUV
Chroma subsampling                       : 4:2:0
Bit depth                                : 8 bits
Scan type                                : Progressive
Bits/(Pixel*Frame)                       : 0.090
Stream size                              : 334 MiB (95%)
Codec configuration box                  : avcC

Audio
ID                                       : 2
Format                                   : AAC LC
Format/Info                              : Advanced Audio Codec Low Complexity
Codec ID                                 : mp4a-40-2
Duration                                 : 23 min 34 s
Bit rate mode                            : Constant
Bit rate                                 : 99.7 kb/s
Channel(s)                               : 2 channels
Channel layout                           : L R
Sampling rate                            : 48.0 kHz
Frame rate                               : 46.875 FPS (1024 SPF)
Compression mode                         : Lossy
Stream size                              : 16.8 MiB (5%)
Default                                  : Yes
Alternate group                          : 1

Other Files in this Torrent
887.mp4
beta
Anime DDL+NZB mirror
Current Time: 19/07/2024 10:02



About/FAQs

Discord