File Size362.0 MB (379,618,784 bytes)
DownloadAnonFiles | ClickNUpload | DownloadGG | KrakenFiles | MultiUp
  • BdUpload
  • DownAce
  • Fichier
  • FileCloud
  • Filerio
  • FilesCdn
  • IndiShare
  • Kbagi
  • Turbobit
  • UpToBox
  • Uppit
| ZippyShare
HashesCRC32: D703C0BF, MD5: 8404A011CF6CF799C5D25B654A2CAA70, SHA1: DC9F4B82B910B373B0898E5A8E98FBAF7678A577, SHA256: B0818977B112F2BFE317FA6792DB7F721F92C4E949DB0F58363075C2CE94F74B, ED2K: 382D65E7183969DD2AFFCAF5D00F330A
Screenshots
screenshotscreenshotscreenshotscreenshotscreenshot
Additional Info
General
Complete name                            : 883.mp4
Format                                   : MPEG-4
Format profile                           : Base Media
Codec ID                                 : isom (isom/iso2/avc1/mp41)
File size                                : 362 MiB
Duration                                 : 23 min 33 s
Overall bit rate mode                    : Variable
Overall bit rate                         : 2 148 kb/s
Writing application                      : Lavf59.17.101

Video
ID                                       : 1
Format                                   : AVC
Format/Info                              : Advanced Video Codec
Format profile                           : Main@L3.1
Format settings                          : CABAC / 4 Ref Frames
Format settings, CABAC                   : Yes
Format settings, Reference frames        : 4 frames
Codec ID                                 : avc1
Codec ID/Info                            : Advanced Video Coding
Duration                                 : 23 min 33 s
Bit rate mode                            : Variable
Bit rate                                 : 2 044 kb/s
Maximum bit rate                         : 6 000 kb/s
Width                                    : 1 280 pixels
Height                                   : 720 pixels
Display aspect ratio                     : 16:9
Frame rate mode                          : Constant
Frame rate                               : 23.976 (23976/1000) FPS
Original frame rate                      : 23.976 (24000/1001) FPS
Color space                              : YUV
Chroma subsampling                       : 4:2:0
Bit depth                                : 8 bits
Scan type                                : Progressive
Bits/(Pixel*Frame)                       : 0.092
Stream size                              : 344 MiB (95%)
Codec configuration box                  : avcC

Audio
ID                                       : 2
Format                                   : AAC LC
Format/Info                              : Advanced Audio Codec Low Complexity
Codec ID                                 : mp4a-40-2
Duration                                 : 23 min 33 s
Bit rate mode                            : Constant
Bit rate                                 : 99.5 kb/s
Channel(s)                               : 2 channels
Channel layout                           : L R
Sampling rate                            : 48.0 kHz
Frame rate                               : 46.875 FPS (1024 SPF)
Compression mode                         : Lossy
Stream size                              : 16.8 MiB (5%)
Default                                  : Yes
Alternate group                          : 1

Other Files in this Torrent
883.mp4
beta
Anime DDL+NZB mirror
Current Time: 19/07/2024 09:03



About/FAQs

Discord