4. Stratos 4 Advance Kanketsu-hen/Stratos 4 Advance Kanketsu-hen - 02.mkv


File Size349.0 MB (365,985,208 bytes)
DownloadAnonFiles | ClickNUpload | DownloadGG | KrakenFiles | MultiUp
  • BdUpload
  • DownAce
  • Fichier
  • FileCloud
  • Filerio
  • FilesCdn
  • IndiShare
  • Kbagi
  • Turbobit
  • UpToBox
  • Uppit
| ZippyShare
HashesCRC32: C49F5710, MD5: 5A0E09E939F5EC2804E4D49AAE2F120E, SHA1: 7910ED19D98438A3538270EC5477D9D4E3F12A35, SHA256: CBF04E909248A7F67F7D58011D8913B4A1CE202F1607BE6FD6A0ACD4725E9BE1, ED2K: 48834B10BE5C2B42BC207637836094BA
Screenshots
screenshotscreenshotscreenshotscreenshotscreenshot
SubtitlesAll Attachments | ASS [eng, ASS], SRT [eng, SRT]
Additional Info
General
Unique ID                                : 231813213055734709422613268353601577942 (0xAE6599D17E50263697CDEDFBB66123D6)
Complete name                            : Stratos 4 Advance Kanketsu-hen - 02.mkv
Format                                   : Matroska
Format version                           : Version 1
File size                                : 349 MiB
Duration                                 : 26 min 39 s
Overall bit rate mode                    : Variable
Overall bit rate                         : 1 830 kb/s
Encoded date                             : UTC 2006-12-17 18:24:30
Writing application                      : mkvmerge v1.6.0 ('Ist das so') built on Oct 14 2005 15:22:41
Writing library                          : libebml v0.7.5 + libmatroska v0.7.7
Attachments                              : HITROAD.TTF

Video
ID                                       : 1
Format                                   : AVC
Format/Info                              : Advanced Video Codec
Format profile                           : High@L5.1
Format settings                          : CABAC / 11 Ref Frames
Format settings, CABAC                   : Yes
Format settings, Reference frames        : 11 frames
Codec ID                                 : V_MPEG4/ISO/AVC
Duration                                 : 26 min 39 s
Bit rate                                 : 1 711 kb/s
Width                                    : 704 pixels
Height                                   : 480 pixels
Display aspect ratio                     : 16:9
Original display aspect ratio            : 3:2
Frame rate mode                          : Constant
Frame rate                               : 23.976 (23976/1000) FPS
Color space                              : YUV
Chroma subsampling                       : 4:2:0
Bit depth                                : 8 bits
Scan type                                : Progressive
Bits/(Pixel*Frame)                       : 0.211
Stream size                              : 318 MiB (91%)
Title                                    : Code 208: Piper on the Target
Writing library                          : x264 core 54 svn-598M
Encoding settings                        : cabac=1 / ref=8 / deblock=1:0:0 / analyse=0x3:0x133 / me=umh / subme=7 / brdo=1 / mixed_ref=1 / me_range=24 / chroma_me=1 / trellis=2 / 8x8dct=1 / cqm=0 / deadzone=21,11 / chroma_qp_offset=0 / slices=2 / nr=0 / decimate=1 / mbaff=0 / bframes=3 / b_pyramid=1 / b_adapt=1 / b_bias=0 / direct=1 / wpredb=1 / bime=1 / keyint=250 / keyint_min=25 / scenecut=40 / rc=2pass / bitrate=1711 / ratetol=1.0 / rceq='blurCplx^(1-qComp)' / qcomp=0.60 / qpmin=10 / qpmax=51 / qpstep=4 / cplxblur=20.0 / qblur=0.5 / ip_ratio=1.40 / pb_ratio=1.30 / aq=1:1.0:15.0
Default                                  : Yes
Forced                                   : No

Audio
ID                                       : 2
Format                                   : Vorbis
Format settings, Floor                   : 1
Codec ID                                 : A_VORBIS
Duration                                 : 26 min 39 s
Bit rate mode                            : Variable
Bit rate                                 : 128 kb/s
Channel(s)                               : 2 channels
Sampling rate                            : 48.0 kHz
Compression mode                         : Lossy
Stream size                              : 24.4 MiB (7%)
Title                                    : 2.0 Vorbis
Writing library                          : aoTuV Beta 4.51 (UTC 2005-11-17)
Language                                 : Japanese
Default                                  : Yes
Forced                                   : No

Text #1
ID                                       : 3
Format                                   : ASS
Codec ID                                 : S_TEXT/ASS
Codec ID/Info                            : Advanced Sub Station Alpha
Compression mode                         : Lossless
Title                                    : ASS
Language                                 : English
Default                                  : Yes
Forced                                   : No

Text #2
ID                                       : 4
Format                                   : UTF-8
Codec ID                                 : S_TEXT/UTF8
Codec ID/Info                            : UTF-8 Plain Text
Title                                    : SRT
Language                                 : English
Default                                  : No
Forced                                   : No

Menu
00:00:00.000                             : en:Prologue
00:00:55.500                             : en:Opening
00:02:26.200                             : en:Code 208: Piper on the Target
00:24:17.200                             : en:Ending
00:26:44.000                             : en:Preview

Other Files in this Torrent
4. Stratos 4 Advance Kanketsu-hen/Stratos 4 Advance Kanketsu-hen - 02.mkv
beta
Anime DDL+NZB mirror
Current Time: 07/12/2022 04:35



About/FAQs

Discord