3. Stratos 4 Advance/Stratos 4 Advance - 05.mkv


File Size234.6 MB (245,994,432 bytes)
DownloadAnonFiles | ClickNUpload | DownloadGG | KrakenFiles | MultiUp
  • BdUpload
  • DownAce
  • Fichier
  • FileCloud
  • Filerio
  • FilesCdn
  • IndiShare
  • Kbagi
  • Turbobit
  • UpToBox
  • Uppit
| ZippyShare
HashesCRC32: 932D612D, MD5: BB398EF1B155302D983576E96E84255E, SHA1: DE28133D9BFDAD49DB0F95E9C77A9502AB050F19, SHA256: E78D395B0632CEAB685B610E048FB8A1C2E6E155A3DF47FBBE6B4F5D62AF1984, ED2K: 5F0905A988AE87F89B438BAB755BDE30
Screenshots
screenshotscreenshotscreenshotscreenshotscreenshot
SubtitlesAll Attachments | ASS [eng, ASS], SRT [eng, SRT]
Additional Info
General
Unique ID                                : 231404338048841402119832905826606200712 (0xAE16DAB95D4C8519A7F0783C05F33788)
Complete name                            : Stratos 4 Advance - 05.mkv
Format                                   : Matroska
Format version                           : Version 1
File size                                : 235 MiB
Duration                                 : 28 min 0 s
Overall bit rate mode                    : Variable
Overall bit rate                         : 1 171 kb/s
Encoded date                             : UTC 2006-09-06 18:44:11
Writing application                      : mkvmerge v1.6.0 ('Ist das so') built on Oct 14 2005 15:22:41
Writing library                          : libebml v0.7.5 + libmatroska v0.7.7
Attachments                              : HITROAD.TTF

Video
ID                                       : 1
Format                                   : AVC
Format/Info                              : Advanced Video Codec
Format profile                           : High@L5.1
Format settings                          : CABAC / 11 Ref Frames
Format settings, CABAC                   : Yes
Format settings, Reference frames        : 11 frames
Codec ID                                 : V_MPEG4/ISO/AVC
Duration                                 : 28 min 0 s
Bit rate                                 : 1 050 kb/s
Width                                    : 704 pixels
Height                                   : 480 pixels
Display aspect ratio                     : 16:9
Original display aspect ratio            : 3:2
Frame rate mode                          : Constant
Frame rate                               : 23.976 (23976/1000) FPS
Color space                              : YUV
Chroma subsampling                       : 4:2:0
Bit depth                                : 8 bits
Scan type                                : Progressive
Bits/(Pixel*Frame)                       : 0.130
Stream size                              : 207 MiB (88%)
Title                                    : Code 205: Dash One
Writing library                          : x264 core 45 svn-477M
Encoding settings                        : cabac=1 / ref=8 / deblock=1:0:0 / analyse=0x3:0x133 / me=esa / subme=7 / brdo=1 / mixed_ref=1 / me_range=16 / chroma_me=1 / trellis=2 / 8x8dct=1 / cqm=0 / chroma_qp_offset=0 / slices=1 / nr=0 / bframes=3 / b_pyramid=1 / b_adapt=1 / b_bias=0 / direct=1 / wpredb=1 / bime=1 / keyint=250 / keyint_min=25 / scenecut=40 / rc=2pass / bitrate=1050 / ratetol=1.0 / rceq='blurCplx^(1-qComp)' / qcomp=0.60 / qpmin=10 / qpmax=51 / qpstep=4 / cplxblur=20.0 / qblur=0.5 / ip_ratio=1.40 / pb_ratio=1.30
Default                                  : Yes
Forced                                   : No

Audio
ID                                       : 2
Format                                   : Vorbis
Format settings, Floor                   : 1
Codec ID                                 : A_VORBIS
Duration                                 : 28 min 0 s
Bit rate mode                            : Variable
Bit rate                                 : 112 kb/s
Channel(s)                               : 2 channels
Sampling rate                            : 48.0 kHz
Compression mode                         : Lossy
Stream size                              : 22.4 MiB (10%)
Title                                    : 2.0 Vorbis
Writing library                          : aoTuV Beta 4.51 (UTC 2005-11-17)
Language                                 : Japanese
Default                                  : Yes
Forced                                   : No

Text #1
ID                                       : 3
Format                                   : ASS
Codec ID                                 : S_TEXT/ASS
Codec ID/Info                            : Advanced Sub Station Alpha
Compression mode                         : Lossless
Title                                    : ASS
Language                                 : English
Default                                  : Yes
Forced                                   : No

Text #2
ID                                       : 4
Format                                   : UTF-8
Codec ID                                 : S_TEXT/UTF8
Codec ID/Info                            : UTF-8 Plain Text
Title                                    : SRT
Language                                 : English
Default                                  : No
Forced                                   : No

Menu
00:00:00.000                             : en:Opening
00:01:30.900                             : en:Code 205: Dash One
00:26:12.000                             : en:Ending
00:27:42.800                             : en:Preview

Other Files in this Torrent
3. Stratos 4 Advance/Stratos 4 Advance - 05.mkv
beta
Anime DDL+NZB mirror
Current Time: 07/12/2022 02:38



About/FAQs

Discord