2. Stratos 4 OVA/Stratos 4 OVA - 01.mkv


File Size278.9 MB (292,437,474 bytes)
DownloadAnonFiles | ClickNUpload | DownloadGG | KrakenFiles | MultiUp
  • BdUpload
  • DownAce
  • Fichier
  • FileCloud
  • Filerio
  • FilesCdn
  • IndiShare
  • Kbagi
  • Turbobit
  • UpToBox
  • Uppit
| ZippyShare
HashesCRC32: 484DFC7F, MD5: D7AB0F96A46770EFFAAB2C9E8FF4399E, SHA1: FBD4C87518A5E44D22C00D9C6276F68CD4D2B4DC, SHA256: 4FC935999D75BADB97C95303586D428605D2AE48A46578E8C8006BFFCA7EAE8A, ED2K: 776CD6C7027CD5E3B5BA5B211E403285
Screenshots
screenshotscreenshotscreenshotscreenshotscreenshot
SubtitlesAll Attachments | eng [VOB], eng [VOB], eng [VOB], eng [VOB]
Additional Info
General
Unique ID                                : 227752188217541705199883751045129164398 (0xAB5779D5D04E9995A40540DAC529D66E)
Complete name                            : Stratos 4 OVA - 01.mkv
Format                                   : Matroska
Format version                           : Version 1
File size                                : 279 MiB
Duration                                 : 29 min 5 s
Overall bit rate mode                    : Variable
Overall bit rate                         : 1 341 kb/s
Encoded date                             : UTC 2006-01-31 14:33:29
Writing application                      : mkvmerge v1.6.5 ('Watcher Of The Skies') built on Dec  7 2005 18:53:53
Writing library                          : libebml v0.7.6 + libmatroska v0.8.0

Video
ID                                       : 1
Format                                   : MPEG-4 Visual
Format profile                           : Simple@L3
Format settings                          : BVOP2
Format settings, BVOP                    : 2
Format settings, QPel                    : No
Format settings, GMC                     : No warppoints
Format settings, Matrix                  : Default (H.263)
Muxing mode                              : Packed bitstream
Codec ID                                 : V_MS/VFW/FOURCC / XVID
Codec ID/Hint                            : XviD
Duration                                 : 29 min 5 s
Bit rate                                 : 1 122 kb/s
Width                                    : 640 pixels
Height                                   : 480 pixels
Display aspect ratio                     : 4:3
Frame rate mode                          : Constant
Frame rate                               : 23.976 (23976/1000) FPS
Color space                              : YUV
Chroma subsampling                       : 4:2:0
Bit depth                                : 8 bits
Scan type                                : Progressive
Compression mode                         : Lossy
Bits/(Pixel*Frame)                       : 0.152
Stream size                              : 233 MiB (84%)
Writing library                          : XviD 1.0.0 RC1 (Niltze) (UTC 2004-01-26)
Language                                 : English
Default                                  : Yes
Forced                                   : No

Audio #1
ID                                       : 2
Format                                   : Vorbis
Format settings, Floor                   : 1
Codec ID                                 : A_VORBIS
Duration                                 : 29 min 5 s
Bit rate mode                            : Variable
Bit rate                                 : 96.0 kb/s
Channel(s)                               : 2 channels
Sampling rate                            : 48.0 kHz
Compression mode                         : Lossy
Stream size                              : 20.0 MiB (7%)
Writing application                      : Made with BeSweet v1.5b29
Writing library                          : libVorbis 1.0.1 (UTC 2003-09-09)
Language                                 : English
Default                                  : Yes
Forced                                   : No
Encoded_Application/Url                  : http://DSPguru.doom9.org

Audio #2
ID                                       : 3
Format                                   : Vorbis
Format settings, Floor                   : 1
Codec ID                                 : A_VORBIS
Duration                                 : 29 min 5 s
Bit rate mode                            : Variable
Bit rate                                 : 96.0 kb/s
Channel(s)                               : 2 channels
Sampling rate                            : 48.0 kHz
Compression mode                         : Lossy
Stream size                              : 20.0 MiB (7%)
Writing application                      : Made with BeSweet v1.5b29
Writing library                          : libVorbis 1.0.1 (UTC 2003-09-09)
Language                                 : Japanese
Default                                  : No
Forced                                   : No
Encoded_Application/Url                  : http://DSPguru.doom9.org

Text #1
ID                                       : 4
Format                                   : VobSub
Muxing mode                              : zlib
Codec ID                                 : S_VOBSUB
Codec ID/Info                            : Picture based subtitle format used on DVDs
Language                                 : English
Default                                  : Yes
Forced                                   : No

Text #2
ID                                       : 5
Format                                   : VobSub
Muxing mode                              : zlib
Codec ID                                 : S_VOBSUB
Codec ID/Info                            : Picture based subtitle format used on DVDs
Language                                 : English
Default                                  : No
Forced                                   : No

Other Files in this Torrent
2. Stratos 4 OVA/Stratos 4 OVA - 01.mkv
beta
Anime DDL+NZB mirror
Current Time: 07/12/2022 04:31



About/FAQs

Discord