4. Stratos 4 Advance Kanketsu-hen/Stratos 4 Advance Kanketsu-hen - 01.mkv


File Size232.9 MB (244,227,778 bytes)
DownloadAnonFiles | ClickNUpload | DownloadGG | KrakenFiles | MultiUp
  • BdUpload
  • DownAce
  • Fichier
  • FileCloud
  • Filerio
  • FilesCdn
  • IndiShare
  • Kbagi
  • Turbobit
  • UpToBox
  • Uppit
| ZippyShare
HashesCRC32: C9DB85CD, MD5: 6BDE6D25C638C71EE9E2F7341BF46692, SHA1: A5E1B9961EB0B157EB9353BE70912700F6525C71, SHA256: 380BD77385C23A880C77AFDAEA874C48483EE8BD272217E83B16A52A6279EEBC, ED2K: E236B025D6966EC99E443D29AED147EF
Screenshots
screenshotscreenshotscreenshotscreenshotscreenshot
SubtitlesAll Attachments | ASS [eng, ASS], SRT [eng, SRT]
Additional Info
General
Unique ID                                : 251142758348319417389965796933266450494 (0xBCF055FB0BB3DC4D8C1E783B1916283E)
Complete name                            : Stratos 4 Advance Kanketsu-hen - 01.mkv
Format                                   : Matroska
Format version                           : Version 1
File size                                : 233 MiB
Duration                                 : 27 min 0 s
Overall bit rate mode                    : Variable
Overall bit rate                         : 1 206 kb/s
Encoded date                             : UTC 2006-10-15 18:54:32
Writing application                      : mkvmerge v1.6.0 ('Ist das so') built on Oct 14 2005 15:22:41
Writing library                          : libebml v0.7.5 + libmatroska v0.7.7
Attachments                              : HITROAD.TTF

Video
ID                                       : 1
Format                                   : AVC
Format/Info                              : Advanced Video Codec
Format profile                           : High@L5.1
Format settings                          : CABAC / 11 Ref Frames
Format settings, CABAC                   : Yes
Format settings, Reference frames        : 11 frames
Codec ID                                 : V_MPEG4/ISO/AVC
Duration                                 : 27 min 0 s
Bit rate                                 : 1 042 kb/s
Width                                    : 704 pixels
Height                                   : 480 pixels
Display aspect ratio                     : 16:9
Original display aspect ratio            : 3:2
Frame rate mode                          : Constant
Frame rate                               : 23.976 (23976/1000) FPS
Color space                              : YUV
Chroma subsampling                       : 4:2:0
Bit depth                                : 8 bits
Scan type                                : Progressive
Bits/(Pixel*Frame)                       : 0.129
Stream size                              : 197 MiB (85%)
Title                                    : Code 207: Cross-Winds Take Off
Writing library                          : x264 core 53 svn-582M
Encoding settings                        : cabac=1 / ref=8 / deblock=1:0:0 / analyse=0x3:0x133 / me=umh / subme=7 / brdo=1 / mixed_ref=1 / me_range=24 / chroma_me=1 / trellis=2 / 8x8dct=1 / cqm=0 / deadzone=21,11 / chroma_qp_offset=0 / slices=1 / nr=0 / decimate=1 / mbaff=0 / bframes=3 / b_pyramid=1 / b_adapt=1 / b_bias=0 / direct=1 / wpredb=1 / bime=1 / keyint=250 / keyint_min=25 / scenecut=40 / rc=2pass / bitrate=1042 / ratetol=1.0 / rceq='blurCplx^(1-qComp)' / qcomp=0.60 / qpmin=10 / qpmax=51 / qpstep=4 / cplxblur=20.0 / qblur=0.5 / ip_ratio=1.40 / pb_ratio=1.30
Default                                  : Yes
Forced                                   : No

Audio
ID                                       : 2
Format                                   : Vorbis
Format settings, Floor                   : 1
Codec ID                                 : A_VORBIS
Duration                                 : 27 min 0 s
Bit rate mode                            : Variable
Bit rate                                 : 160 kb/s
Channel(s)                               : 2 channels
Sampling rate                            : 48.0 kHz
Compression mode                         : Lossy
Stream size                              : 30.9 MiB (13%)
Title                                    : 2.0 Vorbis
Writing library                          : aoTuV Beta 4.51 (UTC 2005-11-17)
Language                                 : Japanese
Default                                  : Yes
Forced                                   : No

Text #1
ID                                       : 3
Format                                   : ASS
Codec ID                                 : S_TEXT/ASS
Codec ID/Info                            : Advanced Sub Station Alpha
Compression mode                         : Lossless
Title                                    : ASS
Language                                 : English
Default                                  : Yes
Forced                                   : No

Text #2
ID                                       : 4
Format                                   : UTF-8
Codec ID                                 : S_TEXT/UTF8
Codec ID/Info                            : UTF-8 Plain Text
Title                                    : SRT
Language                                 : English
Default                                  : No
Forced                                   : No

Menu
00:00:00.000                             : en:Prologue
00:01:41.300                             : en:Opening
00:03:12.300                             : en:Code 207: Cross-Winds Take Off
00:25:13.500                             : en:Ending
00:26:44.000                             : en:Preview

Other Files in this Torrent
4. Stratos 4 Advance Kanketsu-hen/Stratos 4 Advance Kanketsu-hen - 01.mkv
beta
Anime DDL+NZB mirror
Current Time: 07/12/2022 02:18



About/FAQs

Discord