2. Stratos 4 OVA/Stratos 4 OVA - 02.mkv


File Size285.2 MB (299,080,287 bytes)
DownloadAnonFiles | ClickNUpload | DownloadGG | KrakenFiles | MultiUp
  • BdUpload
  • DownAce
  • Fichier
  • FileCloud
  • Filerio
  • FilesCdn
  • IndiShare
  • Kbagi
  • Turbobit
  • UpToBox
  • Uppit
| ZippyShare
HashesCRC32: 075E35B6, MD5: C25D8B93642B2B53107DBA92A35D4D8F, SHA1: E3E954D2945B8A8E908CF61EF1686D7392E94299, SHA256: 6E2C38CFAC8CB53ACCA94F36F78D6EEF13CB99977E6C28A3BFC2BA39085FF2FA, ED2K: 9A27EB8657CE1192BFDB0AD47182A087
Screenshots
screenshotscreenshotscreenshotscreenshotscreenshot
SubtitlesAll Attachments | eng [VOB], eng [VOB], eng [VOB], eng [VOB]
Additional Info
General
Unique ID                                : 223969370380580276414260870203744240925 (0xA87EEE8429CC537B843D4511CEE0C51D)
Complete name                            : Stratos 4 OVA - 02.mkv
Format                                   : Matroska
Format version                           : Version 1
File size                                : 285 MiB
Duration                                 : 29 min 9 s
Overall bit rate mode                    : Variable
Overall bit rate                         : 1 367 kb/s
Encoded date                             : UTC 2006-02-03 23:12:17
Writing application                      : mkvmerge v1.6.5 ('Watcher Of The Skies') built on Dec  7 2005 18:53:53
Writing library                          : libebml v0.7.6 + libmatroska v0.8.0

Video
ID                                       : 1
Format                                   : MPEG-4 Visual
Format profile                           : Simple@L3
Format settings                          : BVOP2
Format settings, BVOP                    : 2
Format settings, QPel                    : No
Format settings, GMC                     : No warppoints
Format settings, Matrix                  : Default (H.263)
Muxing mode                              : Packed bitstream
Codec ID                                 : V_MS/VFW/FOURCC / XVID
Codec ID/Hint                            : XviD
Duration                                 : 29 min 9 s
Bit rate                                 : 1 148 kb/s
Width                                    : 640 pixels
Height                                   : 480 pixels
Display aspect ratio                     : 4:3
Frame rate mode                          : Constant
Frame rate                               : 23.976 (23976/1000) FPS
Color space                              : YUV
Chroma subsampling                       : 4:2:0
Bit depth                                : 8 bits
Scan type                                : Progressive
Compression mode                         : Lossy
Bits/(Pixel*Frame)                       : 0.156
Stream size                              : 240 MiB (84%)
Writing library                          : XviD 1.0.0 RC1 (Niltze) (UTC 2004-01-26)
Language                                 : English
Default                                  : Yes
Forced                                   : No

Audio #1
ID                                       : 2
Format                                   : Vorbis
Format settings, Floor                   : 1
Codec ID                                 : A_VORBIS
Duration                                 : 29 min 9 s
Bit rate mode                            : Variable
Bit rate                                 : 96.0 kb/s
Channel(s)                               : 2 channels
Sampling rate                            : 48.0 kHz
Compression mode                         : Lossy
Stream size                              : 20.0 MiB (7%)
Writing application                      : Made with BeSweet v1.5b29
Writing library                          : libVorbis 1.0.1 (UTC 2003-09-09)
Language                                 : English
Default                                  : Yes
Forced                                   : No
Encoded_Application/Url                  : http://DSPguru.doom9.org

Audio #2
ID                                       : 3
Format                                   : Vorbis
Format settings, Floor                   : 1
Codec ID                                 : A_VORBIS
Duration                                 : 29 min 9 s
Bit rate mode                            : Variable
Bit rate                                 : 96.0 kb/s
Channel(s)                               : 2 channels
Sampling rate                            : 48.0 kHz
Compression mode                         : Lossy
Stream size                              : 20.0 MiB (7%)
Writing application                      : Made with BeSweet v1.5b29
Writing library                          : libVorbis 1.0.1 (UTC 2003-09-09)
Language                                 : Japanese
Default                                  : No
Forced                                   : No
Encoded_Application/Url                  : http://DSPguru.doom9.org

Text #1
ID                                       : 4
Format                                   : VobSub
Muxing mode                              : zlib
Codec ID                                 : S_VOBSUB
Codec ID/Info                            : Picture based subtitle format used on DVDs
Language                                 : English
Default                                  : Yes
Forced                                   : No

Text #2
ID                                       : 5
Format                                   : VobSub
Muxing mode                              : zlib
Codec ID                                 : S_VOBSUB
Codec ID/Info                            : Picture based subtitle format used on DVDs
Language                                 : English
Default                                  : No
Forced                                   : No

Other Files in this Torrent
2. Stratos 4 OVA/Stratos 4 OVA - 02.mkv
beta
Anime DDL+NZB mirror
Current Time: 07/12/2022 03:27



About/FAQs

Discord