3. Stratos 4 Advance/Stratos 4 Advance - 06.mkv


File Size233.2 MB (244,496,744 bytes)
DownloadAnonFiles | ClickNUpload | DownloadGG | KrakenFiles | MultiUp
  • BdUpload
  • DownAce
  • Fichier
  • FileCloud
  • Filerio
  • FilesCdn
  • IndiShare
  • Kbagi
  • Turbobit
  • UpToBox
  • Uppit
| ZippyShare
HashesCRC32: 472A8D53, MD5: 464F08A445220EB2EEEA2E5A6AE7B890, SHA1: D63EAAB8BA9DE558FEE1272720FA7C60E286406F, SHA256: EF5A4FB6BF265C682772942DF808DDD3442E29B410235CADA017D9AA201C9159, ED2K: F4BAC708A8C0B294C9A5DA0573635B44
Screenshots
screenshotscreenshotscreenshotscreenshotscreenshot
SubtitlesAll Attachments | ASS [eng, ASS], SRT [eng, SRT]
Additional Info
General
Unique ID                                : 186106575860342439762641456400681944993 (0x8C02D29E699092A1A0F7F13DDF9447A1)
Complete name                            : Stratos 4 Advance - 06.mkv
Format                                   : Matroska
Format version                           : Version 1
File size                                : 233 MiB
Duration                                 : 26 min 22 s
Overall bit rate mode                    : Variable
Overall bit rate                         : 1 236 kb/s
Encoded date                             : UTC 2006-09-06 18:50:58
Writing application                      : mkvmerge v1.6.0 ('Ist das so') built on Oct 14 2005 15:22:41
Writing library                          : libebml v0.7.5 + libmatroska v0.7.7
Attachments                              : HITROAD.TTF

Video
ID                                       : 1
Format                                   : AVC
Format/Info                              : Advanced Video Codec
Format profile                           : High@L5.1
Format settings                          : CABAC / 11 Ref Frames
Format settings, CABAC                   : Yes
Format settings, Reference frames        : 11 frames
Codec ID                                 : V_MPEG4/ISO/AVC
Duration                                 : 26 min 22 s
Bit rate                                 : 1 072 kb/s
Width                                    : 704 pixels
Height                                   : 480 pixels
Display aspect ratio                     : 16:9
Original display aspect ratio            : 3:2
Frame rate mode                          : Constant
Frame rate                               : 23.976 (23976/1000) FPS
Color space                              : YUV
Chroma subsampling                       : 4:2:0
Bit depth                                : 8 bits
Scan type                                : Progressive
Bits/(Pixel*Frame)                       : 0.132
Stream size                              : 198 MiB (85%)
Title                                    : Code 206: Lost Position
Writing library                          : x264 core 45 svn-477M
Encoding settings                        : cabac=1 / ref=8 / deblock=1:0:0 / analyse=0x3:0x133 / me=esa / subme=7 / brdo=1 / mixed_ref=1 / me_range=16 / chroma_me=1 / trellis=2 / 8x8dct=1 / cqm=0 / chroma_qp_offset=0 / slices=1 / nr=0 / bframes=3 / b_pyramid=1 / b_adapt=1 / b_bias=0 / direct=1 / wpredb=1 / bime=1 / keyint=250 / keyint_min=25 / scenecut=40 / rc=2pass / bitrate=1072 / ratetol=1.0 / rceq='blurCplx^(1-qComp)' / qcomp=0.60 / qpmin=10 / qpmax=51 / qpstep=4 / cplxblur=20.0 / qblur=0.5 / ip_ratio=1.40 / pb_ratio=1.30
Default                                  : Yes
Forced                                   : No

Audio
ID                                       : 2
Format                                   : Vorbis
Format settings, Floor                   : 1
Codec ID                                 : A_VORBIS
Duration                                 : 26 min 22 s
Bit rate mode                            : Variable
Bit rate                                 : 160 kb/s
Channel(s)                               : 2 channels
Sampling rate                            : 48.0 kHz
Compression mode                         : Lossy
Stream size                              : 30.2 MiB (13%)
Title                                    : 2.0 Vorbis
Writing library                          : aoTuV Beta 4.51 (UTC 2005-11-17)
Language                                 : Japanese
Default                                  : Yes
Forced                                   : No

Text #1
ID                                       : 3
Format                                   : ASS
Codec ID                                 : S_TEXT/ASS
Codec ID/Info                            : Advanced Sub Station Alpha
Compression mode                         : Lossless
Title                                    : ASS
Language                                 : English
Default                                  : Yes
Forced                                   : No

Text #2
ID                                       : 4
Format                                   : UTF-8
Codec ID                                 : S_TEXT/UTF8
Codec ID/Info                            : UTF-8 Plain Text
Title                                    : SRT
Language                                 : English
Default                                  : No
Forced                                   : No

Menu
00:00:00.000                             : en:Opening
00:01:31.300                             : en:Code 206: Lost Position
00:24:18.000                             : en:Ending
00:25:48.000                             : en:Epilogue

Other Files in this Torrent
3. Stratos 4 Advance/Stratos 4 Advance - 06.mkv
beta
Anime DDL+NZB mirror
Current Time: 07/12/2022 03:39



About/FAQs

Discord