File Size81.02 MB (84,955,159 bytes)
DownloadClickNUpload | Jheberg | MultiUp
  • BdUpload
  • DownAce
  • Fichier
  • FileCloud
  • Filerio
  • FilesCdn
  • IndiShare
  • Kbagi
  • Turbobit
  • UpToBox
  • Uppit
| OpenLoad | Sendspace | SolidFiles | ZippyShare
HashesCRC32: ADBA0EF9, MD5: 6FD787FDB21F289C72D31D499E4B404A, SHA1: 8F1A0F03E193B3D60C92A33DD2A8B5DA9BD9BF2C, SHA256: 7D5447564DE386B4E9E40E3345498F93FB73FC6082F2DC043079C0000CC42A15, ED2K: 9933CBF6B9FF9B88C59E6040BF57DA2A
Screenshots
screenshotscreenshotscreenshot
Additional Info
General
Complete name                            : Youjo Shenki #12 [ADBA0EF9].mp4
Format                                   : MPEG-4
Format profile                           : Base Media / Version 2
Codec ID                                 : mp42 (mp42/mp41)
File size                                : 81.0 MiB
Duration                                 : 2 min 30 s
Overall bit rate mode                    : Variable
Overall bit rate                         : 4 520 kb/s
Encoded date                             : UTC 2017-07-18 03:00:00
Tagged date                              : UTC 2017-07-18 03:00:01
TIM                                      : 00:00:00:00
TSC                                      : 24000
TSZ                                      : 1001

Video
ID                                       : 1
Format                                   : AVC
Format/Info                              : Advanced Video Codec
Format profile                           : Main@L4.1
Format settings                          : CABAC / 3 Ref Frames
Format settings, CABAC                   : Yes
Format settings, ReFrames                : 3 frames
Codec ID                                 : avc1
Codec ID/Info                            : Advanced Video Coding
Duration                                 : 2 min 30 s
Bit rate                                 : 4 198 kb/s
Width                                    : 1 280 pixels
Height                                   : 720 pixels
Display aspect ratio                     : 16:9
Frame rate mode                          : Constant
Frame rate                               : 23.976 (24000/1001) FPS
Standard                                 : NTSC
Color space                              : YUV
Chroma subsampling                       : 4:2:0
Bit depth                                : 8 bits
Scan type                                : Progressive
Bits/(Pixel*Frame)                       : 0.190
Stream size                              : 75.3 MiB (93%)
Language                                 : English
Encoded date                             : UTC 2017-07-18 03:00:00
Tagged date                              : UTC 2017-07-18 03:00:00
Color range                              : Limited
Color primaries                          : BT.709
Transfer characteristics                 : BT.709
Matrix coefficients                      : BT.709
Codec configuration box                  : avcC

Audio
ID                                       : 2
Format                                   : AAC LC
Format/Info                              : Advanced Audio Codec Low Complexity
Codec ID                                 : mp4a-40-2
Duration                                 : 2 min 30 s
Source duration                          : 2 min 30 s
Bit rate mode                            : Variable
Bit rate                                 : 317 kb/s
Maximum bit rate                         : 361 kb/s
Channel(s)                               : 2 channels
Channel layout                           : L R
Sampling rate                            : 48.0 kHz
Frame rate                               : 46.875 FPS (1024 SPF)
Compression mode                         : Lossy
Stream size                              : 5.69 MiB (7%)
Source stream size                       : 5.69 MiB (7%)
Language                                 : English
Encoded date                             : UTC 2017-07-18 03:00:00
Tagged date                              : UTC 2017-07-18 03:00:00

Other Files in this Torrent
Youjo Shenki (Special Episodes)/Youjo Shenki #12 [ADBA0EF9].mp4
beta
Anime DDL+NZB mirror
Current Time: 24/04/2024 11:47



About/FAQs

Discord