File Size9.966 MB (10,449,936 bytes)
DownloadClickNUpload | Jheberg | MultiUp
  • BdUpload
  • DownAce
  • Fichier
  • FileCloud
  • Filerio
  • FilesCdn
  • IndiShare
  • Kbagi
  • Turbobit
  • UpToBox
  • Uppit
| OpenLoad | Sendspace | SolidFiles | ZippyShare
HashesCRC32: 9F3F74BC, MD5: 52CBF334BA5624BB013A1B73D292066B, SHA1: 73A21A992DAFF915BBD4BCD8B76C5E02FBE7AAFE, SHA256: 8D26E1D7EE45AE298480C29FA4737CC00CC52BBF0B23BD8E37CB58B13DCBDD2E, ED2K: 37EE4E6278327FDC5F197C64B3C8E05B
Screenshots
screenshotscreenshotscreenshot
Additional Info
General
Complete name                            : Youjo Shenki #07 [9F3F74BC].mp4
Format                                   : MPEG-4
Format profile                           : Base Media / Version 2
Codec ID                                 : mp42 (isom/mp42)
File size                                : 9.97 MiB
Duration                                 : 2 min 30 s
Overall bit rate mode                    : Variable
Overall bit rate                         : 556 kb/s
Encoded date                             : UTC 2017-03-01 11:06:59
Tagged date                              : UTC 2017-03-01 11:06:59
gsst                                     : 0
gstd                                     : 150372

Video
ID                                       : 1
Format                                   : AVC
Format/Info                              : Advanced Video Codec
Format profile                           : Main@L3.1
Format settings                          : CABAC / 3 Ref Frames
Format settings, CABAC                   : Yes
Format settings, ReFrames                : 3 frames
Codec ID                                 : avc1
Codec ID/Info                            : Advanced Video Coding
Duration                                 : 2 min 30 s
Bit rate                                 : 427 kb/s
Width                                    : 1 280 pixels
Height                                   : 720 pixels
Display aspect ratio                     : 16:9
Frame rate mode                          : Variable
Frame rate                               : 23.976 (23976/1000) FPS
Minimum frame rate                       : 23.955 FPS
Maximum frame rate                       : 23.962 FPS
Color space                              : YUV
Chroma subsampling                       : 4:2:0
Bit depth                                : 8 bits
Scan type                                : Progressive
Bits/(Pixel*Frame)                       : 0.019
Stream size                              : 7.65 MiB (77%)
Title                                    : ISO Media file produced by Google Inc.
Encoded date                             : UTC 2017-03-01 11:06:59
Tagged date                              : UTC 2017-03-01 11:06:59
Color range                              : Limited
Color primaries                          : BT.709
Transfer characteristics                 : BT.709
Matrix coefficients                      : BT.709
Codec configuration box                  : avcC

Audio
ID                                       : 2
Format                                   : AAC LC
Format/Info                              : Advanced Audio Codec Low Complexity
Codec ID                                 : mp4a-40-2
Duration                                 : 2 min 30 s
Bit rate mode                            : Variable
Bit rate                                 : 126 kb/s
Channel(s)                               : 2 channels
Channel layout                           : L R
Sampling rate                            : 44.1 kHz
Frame rate                               : 43.066 FPS (1024 SPF)
Compression mode                         : Lossy
Stream size                              : 2.25 MiB (23%)
Title                                    : ISO Media file produced by Google Inc.
Encoded date                             : UTC 2017-03-01 11:06:59
Tagged date                              : UTC 2017-03-01 11:06:59

Other Files in this Torrent
Youjo Shenki (Special Episodes)/Youjo Shenki #07 [9F3F74BC].mp4
beta
Anime DDL+NZB mirror
Current Time: 20/06/2024 21:27



About/FAQs

Discord