File Size61.92 MB (64,930,342 bytes)
DownloadClickNUpload | Jheberg | MultiUp
  • BdUpload
  • DownAce
  • Fichier
  • FileCloud
  • Filerio
  • FilesCdn
  • IndiShare
  • Kbagi
  • Turbobit
  • UpToBox
  • Uppit
| OpenLoad | Sendspace | SolidFiles | ZippyShare
HashesCRC32: 11026BFE, MD5: 425D911E501621E7D3BFE90F90ABF227, SHA1: F0CB699AC6352F737C54B10E4B87057E87E25A0F, SHA256: 5EC542BC2FD7D6B5FB4707B5A2689475C983C634A5361D4881B5CD10CC2037C7, ED2K: A75932E791BD1CD073797A9358204F47
Screenshots
screenshotscreenshotscreenshot
Additional Info
General
Complete name                            : Youjo Shenki #09 [11026BFE].mp4
Format                                   : MPEG-4
Format profile                           : Base Media / Version 2
Codec ID                                 : mp42 (mp42/mp41)
File size                                : 61.9 MiB
Duration                                 : 2 min 30 s
Overall bit rate mode                    : Variable
Overall bit rate                         : 3 455 kb/s
Encoded date                             : UTC 2017-07-18 02:56:41
Tagged date                              : UTC 2017-07-18 02:56:42
TIM                                      : 00:00:00:00
TSC                                      : 25
TSZ                                      : 1

Video
ID                                       : 1
Format                                   : AVC
Format/Info                              : Advanced Video Codec
Format profile                           : Main@L4.1
Format settings                          : CABAC / 3 Ref Frames
Format settings, CABAC                   : Yes
Format settings, ReFrames                : 3 frames
Codec ID                                 : avc1
Codec ID/Info                            : Advanced Video Coding
Duration                                 : 2 min 30 s
Bit rate                                 : 3 133 kb/s
Width                                    : 1 280 pixels
Height                                   : 720 pixels
Display aspect ratio                     : 16:9
Frame rate mode                          : Constant
Frame rate                               : 25.000 FPS
Standard                                 : PAL
Color space                              : YUV
Chroma subsampling                       : 4:2:0
Bit depth                                : 8 bits
Scan type                                : Progressive
Bits/(Pixel*Frame)                       : 0.136
Stream size                              : 56.2 MiB (91%)
Language                                 : English
Encoded date                             : UTC 2017-07-18 02:56:41
Tagged date                              : UTC 2017-07-18 02:56:41
Color range                              : Limited
Color primaries                          : BT.709
Transfer characteristics                 : BT.709
Matrix coefficients                      : BT.709
Codec configuration box                  : avcC

Audio
ID                                       : 2
Format                                   : AAC LC
Format/Info                              : Advanced Audio Codec Low Complexity
Codec ID                                 : mp4a-40-2
Duration                                 : 2 min 30 s
Source duration                          : 2 min 30 s
Bit rate mode                            : Variable
Bit rate                                 : 317 kb/s
Maximum bit rate                         : 357 kb/s
Channel(s)                               : 2 channels
Channel layout                           : L R
Sampling rate                            : 48.0 kHz
Frame rate                               : 46.875 FPS (1024 SPF)
Compression mode                         : Lossy
Stream size                              : 5.69 MiB (9%)
Source stream size                       : 5.69 MiB (9%)
Language                                 : English
Encoded date                             : UTC 2017-07-18 02:56:41
Tagged date                              : UTC 2017-07-18 02:56:41

Other Files in this Torrent
Youjo Shenki (Special Episodes)/Youjo Shenki #09 [11026BFE].mp4
beta
Anime DDL+NZB mirror
Current Time: 21/02/2024 20:53



About/FAQs

Discord