File Size77.47 MB (81,235,330 bytes)
DownloadClickNUpload | Jheberg | MultiUp
  • BdUpload
  • DownAce
  • Fichier
  • FileCloud
  • Filerio
  • FilesCdn
  • IndiShare
  • Kbagi
  • Turbobit
  • UpToBox
  • Uppit
| OpenLoad | Sendspace | SolidFiles | ZippyShare
HashesCRC32: 176C0A8B, MD5: ACF3EAFA580A180A9BD6724737AAD346, SHA1: 169DF7D2FA5EB74D644AF283925D11C043D04862, SHA256: CF690FAD93AD6556BBD155A789544B6E663B1E87B6BFF75BDA97A2A77A0D714F, ED2K: FE4630F5B1DE7B5490D2D0A588FC5CD0
Screenshots
screenshotscreenshotscreenshot
Additional Info
General
Complete name                            : Youjo Shenki #10 [176C0A8B].mp4
Format                                   : MPEG-4
Format profile                           : Base Media / Version 2
Codec ID                                 : mp42 (mp42/mp41)
File size                                : 77.5 MiB
Duration                                 : 2 min 30 s
Overall bit rate mode                    : Variable
Overall bit rate                         : 4 322 kb/s
Encoded date                             : UTC 2017-07-18 02:57:55
Tagged date                              : UTC 2017-07-18 02:57:56
TIM                                      : 00:00:00:00
TSC                                      : 24000
TSZ                                      : 1001

Video
ID                                       : 1
Format                                   : AVC
Format/Info                              : Advanced Video Codec
Format profile                           : Main@L4.1
Format settings                          : CABAC / 3 Ref Frames
Format settings, CABAC                   : Yes
Format settings, ReFrames                : 3 frames
Codec ID                                 : avc1
Codec ID/Info                            : Advanced Video Coding
Duration                                 : 2 min 30 s
Bit rate                                 : 4 000 kb/s
Width                                    : 1 280 pixels
Height                                   : 720 pixels
Display aspect ratio                     : 16:9
Frame rate mode                          : Constant
Frame rate                               : 23.976 (24000/1001) FPS
Standard                                 : NTSC
Color space                              : YUV
Chroma subsampling                       : 4:2:0
Bit depth                                : 8 bits
Scan type                                : Progressive
Bits/(Pixel*Frame)                       : 0.181
Stream size                              : 71.7 MiB (93%)
Language                                 : English
Encoded date                             : UTC 2017-07-18 02:57:55
Tagged date                              : UTC 2017-07-18 02:57:55
Color range                              : Limited
Color primaries                          : BT.709
Transfer characteristics                 : BT.709
Matrix coefficients                      : BT.709
Codec configuration box                  : avcC

Audio
ID                                       : 2
Format                                   : AAC LC
Format/Info                              : Advanced Audio Codec Low Complexity
Codec ID                                 : mp4a-40-2
Duration                                 : 2 min 30 s
Source duration                          : 2 min 30 s
Bit rate mode                            : Variable
Bit rate                                 : 317 kb/s
Maximum bit rate                         : 360 kb/s
Channel(s)                               : 2 channels
Channel layout                           : L R
Sampling rate                            : 48.0 kHz
Frame rate                               : 46.875 FPS (1024 SPF)
Compression mode                         : Lossy
Stream size                              : 5.69 MiB (7%)
Source stream size                       : 5.69 MiB (7%)
Language                                 : English
Encoded date                             : UTC 2017-07-18 02:57:55
Tagged date                              : UTC 2017-07-18 02:57:55

Other Files in this Torrent
Youjo Shenki (Special Episodes)/Youjo Shenki #10 [176C0A8B].mp4
beta
Anime DDL+NZB mirror
Current Time: 26/05/2024 02:22



About/FAQs

Discord