File Size8.820 MB (9,248,922 bytes)
DownloadClickNUpload | Jheberg | MultiUp
  • BdUpload
  • DownAce
  • Fichier
  • FileCloud
  • Filerio
  • FilesCdn
  • IndiShare
  • Kbagi
  • Turbobit
  • UpToBox
  • Uppit
| OpenLoad | Sendspace | SolidFiles | ZippyShare
HashesCRC32: 071EAAA4, MD5: ADEA6254AE0AA155256739632305FE93, SHA1: 03008E829606A7D6A9EC9636E4998F5B2DF535BE, SHA256: 3C86DD23D42A0F07B0538D3B2FD9EF9501EE77E947998B5C8954CE73D9E58F29, ED2K: 4879097450B809476F35F51930E6F880
Screenshots
screenshotscreenshotscreenshot
Additional Info
General
Complete name                            : Youjo Shenki #04 [071EAAA4].mp4
Format                                   : MPEG-4
Format profile                           : Base Media / Version 2
Codec ID                                 : mp42 (isom/mp42)
File size                                : 8.82 MiB
Duration                                 : 2 min 30 s
Overall bit rate mode                    : Variable
Overall bit rate                         : 492 kb/s
Encoded date                             : UTC 2017-02-03 05:34:27
Tagged date                              : UTC 2017-02-03 05:34:27
gsst                                     : 0
gstd                                     : 150372

Video
ID                                       : 1
Format                                   : AVC
Format/Info                              : Advanced Video Codec
Format profile                           : Main@L3.1
Format settings                          : CABAC / 3 Ref Frames
Format settings, CABAC                   : Yes
Format settings, ReFrames                : 3 frames
Codec ID                                 : avc1
Codec ID/Info                            : Advanced Video Coding
Duration                                 : 2 min 30 s
Bit rate                                 : 363 kb/s
Width                                    : 1 280 pixels
Height                                   : 720 pixels
Display aspect ratio                     : 16:9
Frame rate mode                          : Variable
Frame rate                               : 23.976 (23976/1000) FPS
Minimum frame rate                       : 23.955 FPS
Maximum frame rate                       : 23.962 FPS
Color space                              : YUV
Chroma subsampling                       : 4:2:0
Bit depth                                : 8 bits
Scan type                                : Progressive
Bits/(Pixel*Frame)                       : 0.016
Stream size                              : 6.50 MiB (74%)
Title                                    : ISO Media file produced by Google Inc.
Encoded date                             : UTC 2017-02-03 05:34:27
Tagged date                              : UTC 2017-02-03 05:34:27
Color range                              : Limited
Color primaries                          : BT.709
Transfer characteristics                 : BT.709
Matrix coefficients                      : BT.709
Codec configuration box                  : avcC

Audio
ID                                       : 2
Format                                   : AAC LC
Format/Info                              : Advanced Audio Codec Low Complexity
Codec ID                                 : mp4a-40-2
Duration                                 : 2 min 30 s
Bit rate mode                            : Variable
Bit rate                                 : 126 kb/s
Channel(s)                               : 2 channels
Channel layout                           : L R
Sampling rate                            : 44.1 kHz
Frame rate                               : 43.066 FPS (1024 SPF)
Compression mode                         : Lossy
Stream size                              : 2.25 MiB (26%)
Title                                    : ISO Media file produced by Google Inc.
Encoded date                             : UTC 2017-02-03 05:34:27
Tagged date                              : UTC 2017-02-03 05:34:27

Other Files in this Torrent
Youjo Shenki (Special Episodes)/Youjo Shenki #04 [071EAAA4].mp4
beta
Anime DDL+NZB mirror
Current Time: 22/05/2024 11:16



About/FAQs

Discord