[Valenciano] Yowamushi Pedal - Limit Break - 25 [1080p][AV1 10bit][AAC][Multi-Sub].mkv


File Size316.6 MB (332,001,274 bytes)
DownloadAnonFiles | ClickNUpload | DownloadGG | GoFile | KrakenFiles | MdiaLoad | MultiUp
  • BdUpload
  • DownAce
  • Fichier
  • FileCloud
  • Filerio
  • FilesCdn
  • IndiShare
  • Kbagi
  • Turbobit
  • UpToBox
  • Uppit
| ZippyShare
HashesCRC32: 0E33B7FE, MD5: 62635A0F73BCCA406D2C170C78112727, SHA1: 055A36DA39136E27E269751C7C67C6B265BECCF1, SHA256: AE503CCA24E0EA5B7E1B5AB5E31E6B16005315F04570BB58A71F3187B3E66E34, ED2K: CB4F4BE0B12A8D34C1B97AD92088D1BC
Screenshots
screenshotscreenshotscreenshotscreenshotscreenshot
SubtitlesAll Attachments | English [eng, ASS], Portuguese(Brazil) [por, ASS], Spanish(Latin_America) [spa, ASS], Spanish [spa, ASS], French [fre, ASS], German [ger, ASS], Italian [ita, ASS], Russian [rus, ASS]
Additional Info
General
Unique ID                                : 231958449605469779032115072090719514005 (0xAE819288788F17A8CBE46F04CD45ED95)
Complete name                            : [Valenciano] Yowamushi Pedal - Limit Break - 25 [1080p][AV1 10bit][AAC][Multi-Sub].mkv
Format                                   : Matroska
Format version                           : Version 4
File size                                : 317 MiB
Duration                                 : 24 min 55 s
Overall bit rate                         : 1 776 kb/s
Encoded date                             : UTC 2023-03-26 13:13:45
Writing application                      : mkvmerge v74.0.0 ('You Oughta Know') 64-bit
Writing library                          : libebml v1.4.4 + libmatroska v1.7.1 / Lavf60.3.100
Attachments                              : arialbd.ttf / arialbi.ttf / Arial_0.ttf / ariblk_0.TTF / calibri.ttf / comicbd.ttf / comic_0.ttf / georgiab.ttf / georgiaz.ttf / georgia_0.ttf / impact_0.ttf / Tahoma_0.ttf / times_0.ttf / trebuc_0.ttf / verdana_0.ttf / AdobeArabic-Bold.otf / AdobeArabic-BoldItalic.otf / AdobeArabic-Italic.otf / AdobeArabic-Regular.otf

Video
ID                                       : 10
Format                                   : AV1
Format/Info                              : AOMedia Video 1
Format profile                           : Main@L4.0
Codec ID                                 : V_AV1
Duration                                 : 24 min 55 s
Bit rate                                 : 1 605 kb/s
Width                                    : 1 920 pixels
Height                                   : 1 080 pixels
Display aspect ratio                     : 16:9
Frame rate mode                          : Constant
Frame rate                               : 23.976 (24000/1001) FPS
Color space                              : YUV
Chroma subsampling                       : 4:2:0
Bit depth                                : 10 bits
Bits/(Pixel*Frame)                       : 0.032
Stream size                              : 286 MiB (90%)
Default                                  : Yes
Forced                                   : No
Color range                              : Limited

Audio
ID                                       : 9
Format                                   : AAC LC
Format/Info                              : Advanced Audio Codec Low Complexity
Codec ID                                 : A_AAC-2
Duration                                 : 24 min 55 s
Bit rate                                 : 128 kb/s
Channel(s)                               : 2 channels
Channel layout                           : L R
Sampling rate                            : 44.1 kHz
Frame rate                               : 43.066 FPS (1024 SPF)
Compression mode                         : Lossy
Stream size                              : 22.8 MiB (7%)
Language                                 : Japanese
Default                                  : Yes
Forced                                   : No

Text #1
ID                                       : 1
Format                                   : ASS
Codec ID                                 : S_TEXT/ASS
Codec ID/Info                            : Advanced Sub Station Alpha
Duration                                 : 24 min 49 s
Bit rate                                 : 159 b/s
Count of elements                        : 346
Compression mode                         : Lossless
Stream size                              : 28.9 KiB (0%)
Title                                    : English
Language                                 : English
Default                                  : Yes
Forced                                   : No

Text #2
ID                                       : 2
Format                                   : ASS
Codec ID                                 : S_TEXT/ASS
Codec ID/Info                            : Advanced Sub Station Alpha
Duration                                 : 24 min 49 s
Bit rate                                 : 161 b/s
Count of elements                        : 343
Compression mode                         : Lossless
Stream size                              : 29.4 KiB (0%)
Title                                    : Portuguese(Brazil)
Language                                 : Portuguese
Default                                  : No
Forced                                   : No

Text #3
ID                                       : 3
Format                                   : ASS
Codec ID                                 : S_TEXT/ASS
Codec ID/Info                            : Advanced Sub Station Alpha
Duration                                 : 24 min 53 s
Bit rate                                 : 142 b/s
Count of elements                        : 331
Compression mode                         : Lossless
Stream size                              : 26.0 KiB (0%)
Title                                    : Spanish(Latin_America)
Language                                 : Spanish
Default                                  : No
Forced                                   : No

Text #4
ID                                       : 4
Format                                   : ASS
Codec ID                                 : S_TEXT/ASS
Codec ID/Info                            : Advanced Sub Station Alpha
Duration                                 : 24 min 53 s
Bit rate                                 : 142 b/s
Count of elements                        : 331
Compression mode                         : Lossless
Stream size                              : 26.0 KiB (0%)
Title                                    : Spanish
Language                                 : Spanish
Default                                  : No
Forced                                   : No

Text #5
ID                                       : 5
Format                                   : ASS
Codec ID                                 : S_TEXT/ASS
Codec ID/Info                            : Advanced Sub Station Alpha
Duration                                 : 24 min 49 s
Bit rate                                 : 134 b/s
Count of elements                        : 366
Compression mode                         : Lossless
Stream size                              : 24.5 KiB (0%)
Title                                    : French
Language                                 : French
Default                                  : No
Forced                                   : No

Text #6
ID                                       : 6
Format                                   : ASS
Codec ID                                 : S_TEXT/ASS
Codec ID/Info                            : Advanced Sub Station Alpha
Duration                                 : 24 min 49 s
Bit rate                                 : 138 b/s
Count of elements                        : 381
Compression mode                         : Lossless
Stream size                              : 25.2 KiB (0%)
Title                                    : German
Language                                 : German
Default                                  : No
Forced                                   : No

Text #7
ID                                       : 7
Format                                   : ASS
Codec ID                                 : S_TEXT/ASS
Codec ID/Info                            : Advanced Sub Station Alpha
Duration                                 : 24 min 49 s
Bit rate                                 : 181 b/s
Count of elements                        : 370
Compression mode                         : Lossless
Stream size                              : 33.1 KiB (0%)
Title                                    : Italian
Language                                 : Italian
Default                                  : No
Forced                                   : No

Text #8
ID                                       : 8
Format                                   : ASS
Codec ID                                 : S_TEXT/ASS
Codec ID/Info                            : Advanced Sub Station Alpha
Duration                                 : 24 min 49 s
Bit rate                                 : 171 b/s
Count of elements                        : 344
Compression mode                         : Lossless
Stream size                              : 31.2 KiB (0%)
Title                                    : Russian
Language                                 : Russian
Default                                  : No
Forced                                   : No

Other Files in this Torrent
[Valenciano] Yowamushi Pedal - Limit Break - 25 [1080p][AV1 10bit][AAC][Multi-Sub].mkv
beta
Anime DDL+NZB mirror
Current Time: 17/07/2024 19:29



About/FAQs

Discord