[Valenciano] Yowamushi Pedal - Limit Break - 03 [1080p][AV1 10bit][AAC][Multi-Sub].mkv


File Size489.0 MB (512,725,643 bytes)
DownloadClickNUpload | DownloadGG | GoFile | KrakenFiles | MdiaLoad | MultiUp
  • BdUpload
  • DownAce
  • Fichier
  • FileCloud
  • Filerio
  • FilesCdn
  • IndiShare
  • Kbagi
  • Turbobit
  • UpToBox
  • Uppit
| ZippyShare
HashesCRC32: 906D5327, MD5: E666D5DA1301A2E8F99F03D7004780AB, SHA1: FCEEE3078F82E2B6B4E8E7274E437217D2ECE5BD, SHA256: 11D1FB35C26C4178DE137EEF7AE8C21E7D4E020297C81103A98CA58402937B04, ED2K: A7B70CFDD1BD145B1460AFDE8475E169
Screenshots
screenshotscreenshotscreenshotscreenshotscreenshot
SubtitlesAll Attachments | English [eng, ASS], Portuguese(Brazil) [por, ASS], Spanish(Latin_America) [spa, ASS], Spanish [spa, ASS], French [fre, ASS], German [ger, ASS], Italian [ita, ASS], Russian [rus, ASS]
Additional Info
General
Unique ID                                : 78939620410316643278623676266249472411 (0x3B6337C6A28D34F2ECE38C17BF1C499B)
Complete name                            : [Valenciano] Yowamushi Pedal - Limit Break - 03 [1080p][AV1 10bit][AAC][Multi-Sub].mkv
Format                                   : Matroska
Format version                           : Version 4
File size                                : 489 MiB
Duration                                 : 24 min 55 s
Overall bit rate                         : 2 743 kb/s
Encoded date                             : UTC 2022-10-23 17:10:35
Writing application                      : mkvmerge v71.1.0 ('Fortitude') 64-bit
Writing library                          : libebml v1.4.4 + libmatroska v1.7.1 / Lavf59.27.100
Attachments                              : arialbd.ttf / arialbi.ttf / Arial_0.ttf / ariblk_0.TTF / calibri.ttf / comicbd.ttf / comic_0.ttf / georgiab.ttf / georgiaz.ttf / georgia_0.ttf / impact_0.ttf / Tahoma_0.ttf / times_0.ttf / trebuc_0.ttf / verdana_0.ttf / AdobeArabic-Bold.otf / AdobeArabic-BoldItalic.otf / AdobeArabic-Italic.otf / AdobeArabic-Regular.otf

Video
ID                                       : 10
Format                                   : AV1
Format/Info                              : AOMedia Video 1
Format profile                           : Main@L4.0
Codec ID                                 : V_AV1
Duration                                 : 24 min 55 s
Bit rate                                 : 2 572 kb/s
Width                                    : 1 920 pixels
Height                                   : 1 080 pixels
Display aspect ratio                     : 16:9
Frame rate mode                          : Constant
Frame rate                               : 23.976 (24000/1001) FPS
Color space                              : YUV
Chroma subsampling                       : 4:2:0
Bit depth                                : 10 bits
Bits/(Pixel*Frame)                       : 0.052
Stream size                              : 458 MiB (94%)
Default                                  : Yes
Forced                                   : No
Color range                              : Limited

Audio
ID                                       : 9
Format                                   : AAC LC
Format/Info                              : Advanced Audio Codec Low Complexity
Codec ID                                 : A_AAC-2
Duration                                 : 24 min 55 s
Bit rate                                 : 128 kb/s
Channel(s)                               : 2 channels
Channel layout                           : L R
Sampling rate                            : 44.1 kHz
Frame rate                               : 43.066 FPS (1024 SPF)
Compression mode                         : Lossy
Stream size                              : 22.8 MiB (5%)
Language                                 : Japanese
Default                                  : Yes
Forced                                   : No

Text #1
ID                                       : 1
Format                                   : ASS
Codec ID                                 : S_TEXT/ASS
Codec ID/Info                            : Advanced Sub Station Alpha
Duration                                 : 24 min 50 s
Bit rate                                 : 173 b/s
Count of elements                        : 391
Compression mode                         : Lossless
Stream size                              : 31.5 KiB (0%)
Title                                    : English
Language                                 : English
Default                                  : Yes
Forced                                   : No

Text #2
ID                                       : 2
Format                                   : ASS
Codec ID                                 : S_TEXT/ASS
Codec ID/Info                            : Advanced Sub Station Alpha
Duration                                 : 24 min 50 s
Bit rate                                 : 174 b/s
Count of elements                        : 389
Compression mode                         : Lossless
Stream size                              : 31.8 KiB (0%)
Title                                    : Portuguese(Brazil)
Language                                 : Portuguese
Default                                  : No
Forced                                   : No

Text #3
ID                                       : 3
Format                                   : ASS
Codec ID                                 : S_TEXT/ASS
Codec ID/Info                            : Advanced Sub Station Alpha
Duration                                 : 24 min 50 s
Bit rate                                 : 149 b/s
Count of elements                        : 368
Compression mode                         : Lossless
Stream size                              : 27.2 KiB (0%)
Title                                    : Spanish(Latin_America)
Language                                 : Spanish
Default                                  : No
Forced                                   : No

Text #4
ID                                       : 4
Format                                   : ASS
Codec ID                                 : S_TEXT/ASS
Codec ID/Info                            : Advanced Sub Station Alpha
Duration                                 : 24 min 50 s
Bit rate                                 : 150 b/s
Count of elements                        : 368
Compression mode                         : Lossless
Stream size                              : 27.3 KiB (0%)
Title                                    : Spanish
Language                                 : Spanish
Default                                  : No
Forced                                   : No

Text #5
ID                                       : 5
Format                                   : ASS
Codec ID                                 : S_TEXT/ASS
Codec ID/Info                            : Advanced Sub Station Alpha
Duration                                 : 24 min 50 s
Bit rate                                 : 141 b/s
Count of elements                        : 381
Compression mode                         : Lossless
Stream size                              : 25.7 KiB (0%)
Title                                    : French
Language                                 : French
Default                                  : No
Forced                                   : No

Text #6
ID                                       : 6
Format                                   : ASS
Codec ID                                 : S_TEXT/ASS
Codec ID/Info                            : Advanced Sub Station Alpha
Duration                                 : 24 min 50 s
Bit rate                                 : 149 b/s
Count of elements                        : 429
Compression mode                         : Lossless
Stream size                              : 27.2 KiB (0%)
Title                                    : German
Language                                 : German
Default                                  : No
Forced                                   : No

Text #7
ID                                       : 7
Format                                   : ASS
Codec ID                                 : S_TEXT/ASS
Codec ID/Info                            : Advanced Sub Station Alpha
Duration                                 : 24 min 50 s
Bit rate                                 : 184 b/s
Count of elements                        : 396
Compression mode                         : Lossless
Stream size                              : 33.5 KiB (0%)
Title                                    : Italian
Language                                 : Italian
Default                                  : No
Forced                                   : No

Text #8
ID                                       : 8
Format                                   : ASS
Codec ID                                 : S_TEXT/ASS
Codec ID/Info                            : Advanced Sub Station Alpha
Duration                                 : 24 min 50 s
Bit rate                                 : 185 b/s
Count of elements                        : 389
Compression mode                         : Lossless
Stream size                              : 33.8 KiB (0%)
Title                                    : Russian
Language                                 : Russian
Default                                  : No
Forced                                   : No

Other Files in this Torrent
[Valenciano] Yowamushi Pedal - Limit Break - 03 [1080p][AV1 10bit][AAC][Multi-Sub].mkv
beta
Anime DDL+NZB mirror
Current Time: 26/02/2024 00:15



About/FAQs

Discord