[Valenciano] Yowamushi Pedal - Limit Break - 16 [1080p][AV1 10bit][AAC][Multi-Sub].mkv


File Size350.4 MB (367,463,881 bytes)
DownloadAnonFiles | ClickNUpload | DownloadGG | GoFile | KrakenFiles | MdiaLoad | MultiUp
  • BdUpload
  • DownAce
  • Fichier
  • FileCloud
  • Filerio
  • FilesCdn
  • IndiShare
  • Kbagi
  • Turbobit
  • UpToBox
  • Uppit
| ZippyShare
HashesCRC32: FB9D0D97, MD5: DB428BBE8F0DAC88FCDF298AD994AE3D, SHA1: 6934AAD880DE668C9FE1574AC41F48D29866181C, SHA256: 9AEE7B8542420BD635715A0316AECD0D237F59236C23165E0F7D6AD3686295AD, ED2K: 2F29D41FF1BFB7DF5E6C07E4C7C60B44
Screenshots
screenshotscreenshotscreenshotscreenshotscreenshot
SubtitlesAll Attachments | English [eng, ASS], Portuguese(Brazil) [por, ASS], Spanish [spa, ASS], French [fre, ASS], German [ger, ASS], Italian [ita, ASS], Russian [rus, ASS]
Additional Info
General
Unique ID                                : 17804352121130204062599425325226291171 (0xD64FE554C62479FF2139A5DA7346FE3)
Complete name                            : [Valenciano] Yowamushi Pedal - Limit Break - 16 [1080p][AV1 10bit][AAC][Multi-Sub].mkv
Format                                   : Matroska
Format version                           : Version 4
File size                                : 350 MiB
Duration                                 : 24 min 55 s
Overall bit rate                         : 1 966 kb/s
Encoded date                             : UTC 2023-02-05 06:40:17
Writing application                      : mkvmerge v73.0.0 ('25 or 6 to 4') 64-bit
Writing library                          : libebml v1.4.4 + libmatroska v1.7.1 / Lavf59.27.100
Attachments                              : arialbd.ttf / arialbi.ttf / Arial_0.ttf / ariblk_0.TTF / calibri.ttf / comicbd.ttf / comic_0.ttf / georgiab.ttf / georgiaz.ttf / georgia_0.ttf / impact_0.ttf / Tahoma_0.ttf / times_0.ttf / trebuc_0.ttf / verdana_0.ttf / AdobeArabic-Bold.otf / AdobeArabic-BoldItalic.otf / AdobeArabic-Italic.otf / AdobeArabic-Regular.otf

Video
ID                                       : 9
Format                                   : AV1
Format/Info                              : AOMedia Video 1
Format profile                           : Main@L4.0
Codec ID                                 : V_AV1
Duration                                 : 24 min 55 s
Bit rate                                 : 1 795 kb/s
Width                                    : 1 920 pixels
Height                                   : 1 080 pixels
Display aspect ratio                     : 16:9
Frame rate mode                          : Constant
Frame rate                               : 23.976 (24000/1001) FPS
Color space                              : YUV
Chroma subsampling                       : 4:2:0
Bit depth                                : 10 bits
Bits/(Pixel*Frame)                       : 0.036
Stream size                              : 320 MiB (91%)
Default                                  : Yes
Forced                                   : No
Color range                              : Limited

Audio
ID                                       : 8
Format                                   : AAC LC
Format/Info                              : Advanced Audio Codec Low Complexity
Codec ID                                 : A_AAC-2
Duration                                 : 24 min 55 s
Bit rate                                 : 128 kb/s
Channel(s)                               : 2 channels
Channel layout                           : L R
Sampling rate                            : 44.1 kHz
Frame rate                               : 43.066 FPS (1024 SPF)
Compression mode                         : Lossy
Stream size                              : 22.8 MiB (7%)
Language                                 : Japanese
Default                                  : Yes
Forced                                   : No

Text #1
ID                                       : 1
Format                                   : ASS
Codec ID                                 : S_TEXT/ASS
Codec ID/Info                            : Advanced Sub Station Alpha
Duration                                 : 24 min 52 s
Bit rate                                 : 149 b/s
Count of elements                        : 316
Compression mode                         : Lossless
Stream size                              : 27.2 KiB (0%)
Title                                    : English
Language                                 : English
Default                                  : Yes
Forced                                   : No

Text #2
ID                                       : 2
Format                                   : ASS
Codec ID                                 : S_TEXT/ASS
Codec ID/Info                            : Advanced Sub Station Alpha
Duration                                 : 24 min 52 s
Bit rate                                 : 151 b/s
Count of elements                        : 314
Compression mode                         : Lossless
Stream size                              : 27.6 KiB (0%)
Title                                    : Portuguese(Brazil)
Language                                 : Portuguese
Default                                  : No
Forced                                   : No

Text #3
ID                                       : 3
Format                                   : ASS
Codec ID                                 : S_TEXT/ASS
Codec ID/Info                            : Advanced Sub Station Alpha
Duration                                 : 24 min 52 s
Bit rate                                 : 137 b/s
Count of elements                        : 317
Compression mode                         : Lossless
Stream size                              : 25.1 KiB (0%)
Title                                    : Spanish
Language                                 : Spanish
Default                                  : No
Forced                                   : No

Text #4
ID                                       : 4
Format                                   : ASS
Codec ID                                 : S_TEXT/ASS
Codec ID/Info                            : Advanced Sub Station Alpha
Duration                                 : 24 min 50 s
Bit rate                                 : 132 b/s
Count of elements                        : 360
Compression mode                         : Lossless
Stream size                              : 24.0 KiB (0%)
Title                                    : French
Language                                 : French
Default                                  : No
Forced                                   : No

Text #5
ID                                       : 5
Format                                   : ASS
Codec ID                                 : S_TEXT/ASS
Codec ID/Info                            : Advanced Sub Station Alpha
Duration                                 : 24 min 52 s
Bit rate                                 : 135 b/s
Count of elements                        : 374
Compression mode                         : Lossless
Stream size                              : 24.7 KiB (0%)
Title                                    : German
Language                                 : German
Default                                  : No
Forced                                   : No

Text #6
ID                                       : 6
Format                                   : ASS
Codec ID                                 : S_TEXT/ASS
Codec ID/Info                            : Advanced Sub Station Alpha
Duration                                 : 24 min 52 s
Bit rate                                 : 171 b/s
Count of elements                        : 344
Compression mode                         : Lossless
Stream size                              : 31.2 KiB (0%)
Title                                    : Italian
Language                                 : Italian
Default                                  : No
Forced                                   : No

Text #7
ID                                       : 7
Format                                   : ASS
Codec ID                                 : S_TEXT/ASS
Codec ID/Info                            : Advanced Sub Station Alpha
Duration                                 : 24 min 52 s
Bit rate                                 : 169 b/s
Count of elements                        : 322
Compression mode                         : Lossless
Stream size                              : 31.0 KiB (0%)
Title                                    : Russian
Language                                 : Russian
Default                                  : No
Forced                                   : No

Other Files in this Torrent
[Valenciano] Yowamushi Pedal - Limit Break - 16 [1080p][AV1 10bit][AAC][Multi-Sub].mkv
beta
Anime DDL+NZB mirror
Current Time: 26/02/2024 00:57



About/FAQs

Discord