[Valenciano] Yowamushi Pedal - Limit Break - 15 [1080p][AV1 10bit][AAC][Multi-Sub].mkv


File Size340.2 MB (356,764,340 bytes)
DownloadAnonFiles | ClickNUpload | DownloadGG | GoFile | KrakenFiles | MdiaLoad | MultiUp
  • BdUpload
  • DownAce
  • Fichier
  • FileCloud
  • Filerio
  • FilesCdn
  • IndiShare
  • Kbagi
  • Turbobit
  • UpToBox
  • Uppit
| ZippyShare
HashesCRC32: 5BFDB5B9, MD5: CC88854531DD71544F2297D10779E56C, SHA1: 93DA49343F4B742AE5B6E4F092F00D6CA61CE884, SHA256: F12B8815613CEA36E21B55D079B47EEE7B7C28617635A7F7726BDA3FE4DACD0C, ED2K: B6C6499F8B95FB342B3B32C8E5786131
Screenshots
screenshotscreenshotscreenshotscreenshotscreenshot
SubtitlesAll Attachments | English [eng, ASS], Portuguese(Brazil) [por, ASS], Spanish(Latin_America) [spa, ASS], Spanish [spa, ASS], French [fre, ASS], German [ger, ASS], Italian [ita, ASS]
Additional Info
General
Unique ID                                : 300782973888359446775185333011095899701 (0xE248B190E7FE7EDC5B253F20A5024E35)
Complete name                            : [Valenciano] Yowamushi Pedal - Limit Break - 15 [1080p][AV1 10bit][AAC][Multi-Sub].mkv
Format                                   : Matroska
Format version                           : Version 4
File size                                : 340 MiB
Duration                                 : 24 min 55 s
Overall bit rate                         : 1 909 kb/s
Encoded date                             : UTC 2023-01-29 17:24:40
Writing application                      : mkvmerge v73.0.0 ('25 or 6 to 4') 64-bit
Writing library                          : libebml v1.4.4 + libmatroska v1.7.1 / Lavf59.27.100
Attachments                              : arialbd.ttf / arialbi.ttf / Arial_0.ttf / ariblk_0.TTF / calibri.ttf / comicbd.ttf / comic_0.ttf / georgiab.ttf / georgiaz.ttf / georgia_0.ttf / impact_0.ttf / Tahoma_0.ttf / times_0.ttf / trebuc_0.ttf / verdana_0.ttf / AdobeArabic-Bold.otf / AdobeArabic-BoldItalic.otf / AdobeArabic-Italic.otf / AdobeArabic-Regular.otf

Video
ID                                       : 9
Format                                   : AV1
Format/Info                              : AOMedia Video 1
Format profile                           : Main@L4.0
Codec ID                                 : V_AV1
Duration                                 : 24 min 55 s
Bit rate                                 : 1 738 kb/s
Width                                    : 1 920 pixels
Height                                   : 1 080 pixels
Display aspect ratio                     : 16:9
Frame rate mode                          : Constant
Frame rate                               : 23.976 (24000/1001) FPS
Color space                              : YUV
Chroma subsampling                       : 4:2:0
Bit depth                                : 10 bits
Bits/(Pixel*Frame)                       : 0.035
Stream size                              : 310 MiB (91%)
Default                                  : Yes
Forced                                   : No
Color range                              : Limited

Audio
ID                                       : 8
Format                                   : AAC LC
Format/Info                              : Advanced Audio Codec Low Complexity
Codec ID                                 : A_AAC-2
Duration                                 : 24 min 55 s
Bit rate                                 : 128 kb/s
Channel(s)                               : 2 channels
Channel layout                           : L R
Sampling rate                            : 44.1 kHz
Frame rate                               : 43.066 FPS (1024 SPF)
Compression mode                         : Lossy
Stream size                              : 22.8 MiB (7%)
Language                                 : Japanese
Default                                  : Yes
Forced                                   : No

Text #1
ID                                       : 1
Format                                   : ASS
Codec ID                                 : S_TEXT/ASS
Codec ID/Info                            : Advanced Sub Station Alpha
Duration                                 : 24 min 52 s
Bit rate                                 : 162 b/s
Count of elements                        : 366
Compression mode                         : Lossless
Stream size                              : 29.6 KiB (0%)
Title                                    : English
Language                                 : English
Default                                  : Yes
Forced                                   : No

Text #2
ID                                       : 2
Format                                   : ASS
Codec ID                                 : S_TEXT/ASS
Codec ID/Info                            : Advanced Sub Station Alpha
Duration                                 : 24 min 52 s
Bit rate                                 : 164 b/s
Count of elements                        : 361
Compression mode                         : Lossless
Stream size                              : 30.0 KiB (0%)
Title                                    : Portuguese(Brazil)
Language                                 : Portuguese
Default                                  : No
Forced                                   : No

Text #3
ID                                       : 3
Format                                   : ASS
Codec ID                                 : S_TEXT/ASS
Codec ID/Info                            : Advanced Sub Station Alpha
Duration                                 : 24 min 52 s
Bit rate                                 : 145 b/s
Count of elements                        : 355
Compression mode                         : Lossless
Stream size                              : 26.6 KiB (0%)
Title                                    : Spanish(Latin_America)
Language                                 : Spanish
Default                                  : No
Forced                                   : No

Text #4
ID                                       : 4
Format                                   : ASS
Codec ID                                 : S_TEXT/ASS
Codec ID/Info                            : Advanced Sub Station Alpha
Duration                                 : 24 min 52 s
Bit rate                                 : 147 b/s
Count of elements                        : 355
Compression mode                         : Lossless
Stream size                              : 26.8 KiB (0%)
Title                                    : Spanish
Language                                 : Spanish
Default                                  : No
Forced                                   : No

Text #5
ID                                       : 5
Format                                   : ASS
Codec ID                                 : S_TEXT/ASS
Codec ID/Info                            : Advanced Sub Station Alpha
Duration                                 : 24 min 52 s
Bit rate                                 : 133 b/s
Count of elements                        : 375
Compression mode                         : Lossless
Stream size                              : 24.3 KiB (0%)
Title                                    : French
Language                                 : French
Default                                  : No
Forced                                   : No

Text #6
ID                                       : 6
Format                                   : ASS
Codec ID                                 : S_TEXT/ASS
Codec ID/Info                            : Advanced Sub Station Alpha
Duration                                 : 24 min 52 s
Bit rate                                 : 158 b/s
Count of elements                        : 411
Compression mode                         : Lossless
Stream size                              : 28.9 KiB (0%)
Title                                    : German
Language                                 : German
Default                                  : No
Forced                                   : No

Text #7
ID                                       : 7
Format                                   : ASS
Codec ID                                 : S_TEXT/ASS
Codec ID/Info                            : Advanced Sub Station Alpha
Duration                                 : 24 min 52 s
Bit rate                                 : 185 b/s
Count of elements                        : 386
Compression mode                         : Lossless
Stream size                              : 33.8 KiB (0%)
Title                                    : Italian
Language                                 : Italian
Default                                  : No
Forced                                   : No

Other Files in this Torrent
[Valenciano] Yowamushi Pedal - Limit Break - 15 [1080p][AV1 10bit][AAC][Multi-Sub].mkv
beta
Anime DDL+NZB mirror
Current Time: 26/02/2024 02:10



About/FAQs

Discord