[Valenciano] Yowamushi Pedal - Limit Break - 01 [1080p][AV1 10bit][AAC][Multi-Sub].mkv


File Size336.6 MB (352,966,773 bytes)
DownloadAnonFiles | ClickNUpload | DownloadGG | GoFile | KrakenFiles | MdiaLoad | MultiUp
  • BdUpload
  • DownAce
  • Fichier
  • FileCloud
  • Filerio
  • FilesCdn
  • IndiShare
  • Kbagi
  • Turbobit
  • UpToBox
  • Uppit
| ZippyShare
HashesCRC32: 8EF43719, MD5: AB6DC81AD24A2F1F6BF6F57E2E8BF942, SHA1: 4087AA3284EAC2C83F396FB3BE52B523D3CA6257, SHA256: 6F75279460BF7F9878E5F706DAE0C9623788BBC5C18F031874D71C8C861BDC20, ED2K: 151D7D7AF6FAA880E32D0A21919D741D
Screenshots
screenshotscreenshotscreenshotscreenshotscreenshot
SubtitlesAll Attachments | ger [ASS], eng [ASS], spa [ASS], spa [ASS], fre [ASS], ita [ASS], por [ASS], rus [ASS]
Additional Info
General
Unique ID                                : 171782666116616491723043521175019132661 (0x813C2357E78F0FB91E806935F58516F5)
Complete name                            : [Valenciano] Yowamushi Pedal - Limit Break - 01 [1080p][AV1 10bit][AAC][Multi-Sub].mkv
Format                                   : Matroska
Format version                           : Version 4
File size                                : 337 MiB
Duration                                 : 24 min 55 s
Overall bit rate                         : 1 889 kb/s
Encoded date                             : UTC 2022-10-08 20:18:46
Writing application                      : mkvmerge v69.0.0 ('Day And Age') 64-bit
Writing library                          : libebml v1.4.2 + libmatroska v1.6.3 / Lavf59.27.100

Video
ID                                       : 10
Format                                   : AV1
Format/Info                              : AOMedia Video 1
Format profile                           : Main@L4.0
Codec ID                                 : V_AV1
Duration                                 : 24 min 55 s
Bit rate                                 : 1 756 kb/s
Width                                    : 1 920 pixels
Height                                   : 1 080 pixels
Display aspect ratio                     : 16:9
Frame rate mode                          : Constant
Frame rate                               : 23.976 (24000/1001) FPS
Color space                              : YUV
Chroma subsampling                       : 4:2:0
Bit depth                                : 10 bits
Bits/(Pixel*Frame)                       : 0.035
Stream size                              : 313 MiB (93%)
Default                                  : Yes
Forced                                   : No
Color range                              : Limited

Audio
ID                                       : 9
Format                                   : AAC LC
Format/Info                              : Advanced Audio Codec Low Complexity
Codec ID                                 : A_AAC-2
Duration                                 : 24 min 55 s
Bit rate                                 : 128 kb/s
Channel(s)                               : 2 channels
Channel layout                           : L R
Sampling rate                            : 44.1 kHz
Frame rate                               : 43.066 FPS (1024 SPF)
Compression mode                         : Lossy
Stream size                              : 22.8 MiB (7%)
Default                                  : No
Forced                                   : No

Text #1
ID                                       : 1
Format                                   : ASS
Codec ID                                 : S_TEXT/ASS
Codec ID/Info                            : Advanced Sub Station Alpha
Duration                                 : 24 min 42 s
Bit rate                                 : 149 b/s
Count of elements                        : 439
Compression mode                         : Lossless
Stream size                              : 27.1 KiB (0%)
Language                                 : German
Default                                  : Yes
Forced                                   : No

Text #2
ID                                       : 2
Format                                   : ASS
Codec ID                                 : S_TEXT/ASS
Codec ID/Info                            : Advanced Sub Station Alpha
Duration                                 : 24 min 42 s
Bit rate                                 : 182 b/s
Count of elements                        : 417
Compression mode                         : Lossless
Stream size                              : 33.0 KiB (0%)
Language                                 : English
Default                                  : No
Forced                                   : No

Text #3
ID                                       : 3
Format                                   : ASS
Codec ID                                 : S_TEXT/ASS
Codec ID/Info                            : Advanced Sub Station Alpha
Duration                                 : 24 min 42 s
Bit rate                                 : 151 b/s
Count of elements                        : 375
Compression mode                         : Lossless
Stream size                              : 27.4 KiB (0%)
Language                                 : Spanish
Default                                  : No
Forced                                   : No

Text #4
ID                                       : 4
Format                                   : ASS
Codec ID                                 : S_TEXT/ASS
Codec ID/Info                            : Advanced Sub Station Alpha
Duration                                 : 24 min 42 s
Bit rate                                 : 150 b/s
Count of elements                        : 374
Compression mode                         : Lossless
Stream size                              : 27.2 KiB (0%)
Language                                 : Spanish
Default                                  : No
Forced                                   : No

Text #5
ID                                       : 5
Format                                   : ASS
Codec ID                                 : S_TEXT/ASS
Codec ID/Info                            : Advanced Sub Station Alpha
Duration                                 : 24 min 42 s
Bit rate                                 : 142 b/s
Count of elements                        : 396
Compression mode                         : Lossless
Stream size                              : 25.8 KiB (0%)
Language                                 : French
Default                                  : No
Forced                                   : No

Text #6
ID                                       : 6
Format                                   : ASS
Codec ID                                 : S_TEXT/ASS
Codec ID/Info                            : Advanced Sub Station Alpha
Duration                                 : 24 min 42 s
Bit rate                                 : 198 b/s
Count of elements                        : 429
Compression mode                         : Lossless
Stream size                              : 35.9 KiB (0%)
Language                                 : Italian
Default                                  : No
Forced                                   : No

Text #7
ID                                       : 7
Format                                   : ASS
Codec ID                                 : S_TEXT/ASS
Codec ID/Info                            : Advanced Sub Station Alpha
Duration                                 : 24 min 42 s
Bit rate                                 : 182 b/s
Count of elements                        : 415
Compression mode                         : Lossless
Stream size                              : 33.0 KiB (0%)
Language                                 : Portuguese
Default                                  : No
Forced                                   : No

Text #8
ID                                       : 8
Format                                   : ASS
Codec ID                                 : S_TEXT/ASS
Codec ID/Info                            : Advanced Sub Station Alpha
Duration                                 : 24 min 42 s
Bit rate                                 : 189 b/s
Count of elements                        : 410
Compression mode                         : Lossless
Stream size                              : 34.2 KiB (0%)
Language                                 : Russian
Default                                  : No
Forced                                   : No

Other Files in this Torrent
[Valenciano] Yowamushi Pedal - Limit Break - 01 [1080p][AV1 10bit][AAC][Multi-Sub].mkv
beta
Anime DDL+NZB mirror
Current Time: 26/02/2024 01:15



About/FAQs

Discord