File Size304.9 MB (319,681,155 bytes)
DownloadAnonFiles | ClickNUpload | DropAPK | Free | MultiUp
  • BdUpload
  • DownAce
  • Fichier
  • FileCloud
  • Filerio
  • FilesCdn
  • IndiShare
  • Kbagi
  • Turbobit
  • UpToBox
  • Uppit
| SolidFiles | ZippyShare
HashesCRC32: 5A4778F7, MD5: 52F944979570A1C89499C51921285BAC, SHA1: E66054CBABFCF3BF7B900A8D9D46A84DDAFD9BB0, SHA256: 23AF11308B132917DCBED04DC50AD1AC7FFFE58F4343DBBEA90298CB0BB679A0, ED2K: 66251D83259D5FF898E40C9B6CE6BF84
Screenshots
screenshotscreenshotscreenshotscreenshotscreenshot
SubtitlesAll Attachments | English subs [eng, ASS]
Additional Info
General
Unique ID                                : 256665648529286216371933661670599815041 (0xC118017D683F1446EC8922E86B6BEF81)
Complete name                            : [SSA] Tensei shitara Slime Datta Ken - 30 [1080p].mkv
Format                                   : Matroska
Format version                           : Version 4
File size                                : 305 MiB
Duration                                 : 23 min 42 s
Overall bit rate                         : 1 798 kb/s
Writing application                      : Lavf58.65.101
Writing library                          : Lavf58.65.101
ErrorDetectionType                       : Per level 1
ENCODER_SETTINGS                         : Redacted, CPU - 2xAMD EPYC 7282 32 cores/64 threads, GPU - None used

Video
ID                                       : 1
Format                                   : HEVC
Format/Info                              : High Efficiency Video Coding
Format profile                           : Main@L4@Main
Codec ID                                 : V_MPEGH/ISO/HEVC
Duration                                 : 23 min 42 s
Bit rate                                 : 7 972 kb/s
Width                                    : 1 920 pixels
Height                                   : 1 080 pixels
Display aspect ratio                     : 16:9
Frame rate mode                          : Variable
Frame rate                               : 23.976 FPS
Color space                              : YUV
Chroma subsampling                       : 4:2:0
Bit depth                                : 8 bits
Bits/(Pixel*Frame)                       : 0.160
Stream size                              : 1.32 GiB
Writing library                          : Lavc58.115.102 libx265
Default                                  : Yes
Forced                                   : No
Color range                              : Limited
Color primaries                          : BT.709
Transfer characteristics                 : BT.709
Matrix coefficients                      : BT.709

Audio
ID                                       : 2
Format                                   : AAC LC
Format/Info                              : Advanced Audio Codec Low Complexity
Codec ID                                 : A_AAC-2
Duration                                 : 23 min 42 s
Bit rate                                 : 128 kb/s
Channel(s)                               : 2 channels
Channel layout                           : L R
Sampling rate                            : 44.1 kHz
Frame rate                               : 43.066 FPS (1024 SPF)
Compression mode                         : Lossy
Stream size                              : 21.7 MiB (7%)
Writing library                          : Lavc58.115.102 aac
Language                                 : Japanese
Default                                  : Yes
Forced                                   : No

Text
ID                                       : 3
Format                                   : ASS
Codec ID                                 : S_TEXT/ASS
Codec ID/Info                            : Advanced Sub Station Alpha
Duration                                 : 23 min 41 s
Bit rate                                 : 118 b/s
Count of elements                        : 337
Compression mode                         : Lossless
Stream size                              : 20.3 KiB (0%)
Title                                    : English subs
Writing library                          : Lavc58.115.102 ssa
Language                                 : English
Default                                  : Yes
Forced                                   : No

Other Files in this Torrent
[SSA] Tensei shitara Slime Datta Ken - 30 [1080p].mkv
beta
Anime DDL+NZB mirror
Current Time: 24/06/2024 06:31



About/FAQs

Discord