File Size224.0 MB (234,903,520 bytes)
DownloadAnonFiles | ClickNUpload | DropAPK | Free | MultiUp
  • BdUpload
  • DownAce
  • Fichier
  • FileCloud
  • Filerio
  • FilesCdn
  • IndiShare
  • Kbagi
  • Turbobit
  • UpToBox
  • Uppit
| SolidFiles | ZippyShare
HashesCRC32: 29D109D1, MD5: 1EE2B332A57E9F3D606CECCFE7549BAD, SHA1: AC2DE6DC6415E0D78F73A61075AEF07D890C4881, SHA256: F49FA803CFF3BDD8EA3BE7B41E0E1EB001BC2DD0BC67E56B894CEF1637F8B6F5, ED2K: 2BC025EF2149974CAA1E6078DFE8DAD1
Screenshots
screenshotscreenshotscreenshotscreenshotscreenshot
SubtitlesAll Attachments | English subs [eng, ASS]
Additional Info
General
Unique ID                                : 4777900134635360940042397491541653112 (0x39830AA0114DF0AFD8B84A9BDE53678)
Complete name                            : [SSA] Tensei shitara Slime Datta Ken - 26 [1080p].mkv
Format                                   : Matroska
Format version                           : Version 4
File size                                : 224 MiB
Duration                                 : 23 min 42 s
Overall bit rate                         : 1 321 kb/s
Writing application                      : Lavf58.45.100
Writing library                          : Lavf58.45.100
ErrorDetectionType                       : Per level 1
ENCODER_SETTINGS                         : Redacted, CPU - 2xAMD EPYC 7282 32 cores/64 threads, GPU - None used.

Video
ID                                       : 1
Format                                   : HEVC
Format/Info                              : High Efficiency Video Coding
Format profile                           : Main@L4@Main
Codec ID                                 : V_MPEGH/ISO/HEVC
Duration                                 : 23 min 42 s
Bit rate                                 : 7 981 kb/s
Width                                    : 1 920 pixels
Height                                   : 1 080 pixels
Display aspect ratio                     : 16:9
Frame rate mode                          : Variable
Frame rate                               : 23.976 FPS
Color space                              : YUV
Chroma subsampling                       : 4:2:0
Bit depth                                : 8 bits
Bits/(Pixel*Frame)                       : 0.161
Stream size                              : 1.32 GiB
Writing library                          : Lavc58.91.100 libx265
Default                                  : Yes
Forced                                   : No
Color range                              : Limited
Color primaries                          : BT.709
Transfer characteristics                 : BT.709
Matrix coefficients                      : BT.709

Audio
ID                                       : 2
Format                                   : AAC LC
Format/Info                              : Advanced Audio Codec Low Complexity
Codec ID                                 : A_AAC-2
Duration                                 : 23 min 42 s
Bit rate                                 : 128 kb/s
Channel(s)                               : 2 channels
Channel layout                           : L R
Sampling rate                            : 44.1 kHz
Frame rate                               : 43.066 FPS (1024 SPF)
Compression mode                         : Lossy
Stream size                              : 21.7 MiB (10%)
Writing library                          : Lavc58.91.100 aac
Language                                 : Japanese
Default                                  : Yes
Forced                                   : No

Text
ID                                       : 3
Format                                   : ASS
Codec ID                                 : S_TEXT/ASS
Codec ID/Info                            : Advanced Sub Station Alpha
Duration                                 : 23 min 41 s
Bit rate                                 : 127 b/s
Count of elements                        : 382
Compression mode                         : Lossless
Stream size                              : 22.1 KiB (0%)
Title                                    : English subs
Writing library                          : Lavc58.91.100 ssa
Language                                 : English
Default                                  : Yes
Forced                                   : No

Other Files in this Torrent
[SSA] Tensei shitara Slime Datta Ken - 26 [1080p].mkv
beta
Anime DDL+NZB mirror
Current Time: 24/06/2024 06:30



About/FAQs

Discord