File Size268.5 MB (281,536,619 bytes)
DownloadAnonFiles | ClickNUpload | DropAPK | Free | MultiUp
  • BdUpload
  • DownAce
  • Fichier
  • FileCloud
  • Filerio
  • FilesCdn
  • IndiShare
  • Kbagi
  • Turbobit
  • UpToBox
  • Uppit
| SolidFiles | ZippyShare
HashesCRC32: 0BD81DCB, MD5: FE3BC2D6D197A45D2D2902A9CC152739, SHA1: D39E876CBD3929C401880E761703B49F44C31383, SHA256: 61D26AD91E07C823F8725A20AA89002F3E67468666AFBEA06F3F62BBA9AED9D0, ED2K: 838FEF8B2E2598A32EB720814801571D
Screenshots
screenshotscreenshotscreenshotscreenshotscreenshot
SubtitlesAll Attachments | English subs [eng, ASS]
Additional Info
General
Unique ID                                : 114669179639418975356322704255146306744 (0x56447B0D9EEFC1D4E9EA2D53D3F0ACB8)
Complete name                            : [SSA] Tensei shitara Slime Datta Ken - 25 [1080p].mkv
Format                                   : Matroska
Format version                           : Version 4
File size                                : 268 MiB
Duration                                 : 23 min 42 s
Overall bit rate                         : 1 584 kb/s
Writing application                      : Lavf58.64.100
Writing library                          : Lavf58.64.100
ErrorDetectionType                       : Per level 1

Video
ID                                       : 1
Format                                   : HEVC
Format/Info                              : High Efficiency Video Coding
Format profile                           : Main@L4@Main
Codec ID                                 : V_MPEGH/ISO/HEVC
Duration                                 : 23 min 42 s
Bit rate                                 : 7 976 kb/s
Width                                    : 1 920 pixels
Height                                   : 1 080 pixels
Display aspect ratio                     : 16:9
Frame rate mode                          : Variable
Frame rate                               : 23.976 FPS
Color space                              : YUV
Chroma subsampling                       : 4:2:0
Bit depth                                : 8 bits
Bits/(Pixel*Frame)                       : 0.160
Stream size                              : 1.32 GiB
Writing library                          : Lavc58.112.101 libx265
Default                                  : Yes
Forced                                   : No
Color range                              : Limited
Color primaries                          : BT.709
Transfer characteristics                 : BT.709
Matrix coefficients                      : BT.709

Audio
ID                                       : 2
Format                                   : AAC LC
Format/Info                              : Advanced Audio Codec Low Complexity
Codec ID                                 : A_AAC-2
Duration                                 : 23 min 42 s
Bit rate                                 : 128 kb/s
Channel(s)                               : 2 channels
Channel layout                           : L R
Sampling rate                            : 44.1 kHz
Frame rate                               : 43.066 FPS (1024 SPF)
Compression mode                         : Lossy
Stream size                              : 21.7 MiB (8%)
Writing library                          : Lavc58.112.101 aac
Language                                 : Japanese
Default                                  : Yes
Forced                                   : No

Text
ID                                       : 3
Format                                   : ASS
Codec ID                                 : S_TEXT/ASS
Codec ID/Info                            : Advanced Sub Station Alpha
Duration                                 : 23 min 41 s
Bit rate                                 : 119 b/s
Count of elements                        : 332
Compression mode                         : Lossless
Stream size                              : 20.6 KiB (0%)
Title                                    : English subs
Writing library                          : Lavc58.112.101 ssa
Language                                 : English
Default                                  : Yes
Forced                                   : No

Other Files in this Torrent
[SSA] Tensei shitara Slime Datta Ken - 25 [1080p].mkv
beta
Anime DDL+NZB mirror
Current Time: 24/06/2024 06:14



About/FAQs

Discord